Поиск

1958 Machito And His Afro-Cuban Orchestra - Kenya (2019) {RevOla} [24-44.1]

1958 Machito And His Afro-Cuban Orchestra - Kenya (2019) {RevOla} [24-44.1]
Дата записи диска:
17 декабря, 19 декабря, 24 декабря 1957
Место записи:
Metropolitan Studios, New York City, NY, USA
Издатель (лейбл):
Носитель:
WEB
Формат:
PCM
Тип рипа:
tracks
Контейнер:
FLAC (*.flac)
Количество каналов:
2.0
Разрядность/ЧД:
24/44,1
Битрейт аудио:
lossless
Время звучания:
00:35:20
Наличие сканов:
только обложка

01 - Wild Jungle! 02:46
02 - Congo Mulence 02:55
03 - Kenya 03:27
04 - Oyeme 03:11
05 - Holiday 02:47
06 - Cannonology 02:29
07 - Frenzy 02:41
08 - Blues A La Machito 03:01
09 - Conversation 02:56
10 - Tin Tin Deo 02:55
11 - Minor Rama 03:01
12 - Tururato 03:11

Состав:
  • Alto Saxophone – Julian "Cannonball" Adderley* (треков: 1, 2, 4, 6 To 9)
  • Arranged By – A.K. Salim
  • Arranged By, Music Director – Mario Bauza*
  • Arranged By, Piano – Rene Hernandez
  • Baritone Saxophone – Leslie Johnakins
  • Bass – Roberto Rodriguez*
  • Bongos – Jose Mangual
  • Congas – Candido Camero*, Carlos "Potato" Valdes* (треков: 1, 2, 4, 6 To 9)
  • Featuring – Cannonball Adderley
  • Featuring, Trumpet – Joe Newman (треков: 1, 2, 4, 6 To 9)
  • Liner Notes – Roger Dangerfield
  • Percussion – Nilo Siera*, Pedro Boulong*
  • Performer [Leader] – Machito
  • Producer – Ralph Seijo
  • Reissue Producer – Michael Cuscuna
  • Tenor Saxophone – Jose Madera*, Ray Santos Jr.*
  • Timbales – Uba Nieto*
  • Trombone – Bart Varsalona, Eddie Bert (треков: 1 To 10), Jimmy Russo (3) (треков: 3, 5, 10), Rex Peer (треков: 11, 12), Santo Russo
  • Trumpet – "Doc" Cheatham*, Francis Williams, Joe Livramento (треков: 1, 2, 4, 6 To 9), Paquito Davilla, Paul Cohen
Лог проверки качества
foobar2000 1.4.3 / Dynamic Range Meter 1.1.1
log date: 2021-06-30 15:07:29

--------------------------------------------------------------------------------
Analyzed: Machito And His Afro-Cuban Orchestra / Kenya
--------------------------------------------------------------------------------

DR         Peak         RMS     Duration Track
--------------------------------------------------------------------------------
DR11       0.00 dB   -13.49 dB      2:47 01-Wild Jungle! (Remastered)
DR12      -0.02 dB   -15.67 dB      2:56 02-Congo Mulence (Remastered)
DR10      -0.06 dB   -13.14 dB      3:27 03-Kenya (Remastered)
DR11      -0.05 dB   -14.54 dB      3:12 04-Oyeme (Remastered)
DR13      -0.31 dB   -15.72 dB      2:47 05-Holiday (Remastered)
DR12      -0.24 dB   -14.92 dB      2:30 06-Cannonology (Remastered)
DR11       0.00 dB   -13.34 dB      2:41 07-Frenzy (Remastered)
DR10      -0.16 dB   -14.03 dB      3:02 08-Blues A La Machito (Remastered)
DR12       0.00 dB   -14.89 dB      2:56 09-Conversation (Remastered)
DR10       0.00 dB   -12.54 dB      2:55 10-Tin Tin Deo (Remastered)
DR11       0.00 dB   -13.08 dB      3:02 11-Minor Rama (Remastered)
DR12      -0.01 dB   -15.78 dB      3:11 12-Tururato (Remastered)
--------------------------------------------------------------------------------

Number of tracks:  12
Official DR value: DR11

Samplerate:        44100 Hz
Channels:          2
Bits per sample:   24
Bitrate:           1622 kbps
Codec:             FLAC
================================================================================
22:06
674
Нет комментариев. Ваш будет первым!