Поиск

1958 Louis Smith - Here Comes Louis Smith (2021) {Music Manager} [24-48]

1958 Louis Smith - Here Comes Louis Smith (2021) {Music Manager} [24-48]
Стили:
Дата записи диска:
4 -9 февраля 1957
Место записи:
Audio Sonic Sound, New York, NY
Издатель (лейбл):
Носитель:
WEB
Формат:
PCM
Тип рипа:
tracks
Контейнер:
FLAC (*.flac)
Количество каналов:
2.0
Разрядность/ЧД:
24/48
Битрейт аудио:
lossless
Наличие сканов:
только обложка

Треклист:

01 - Tribute to Brownie 06:38
02 - Brill's Blues 08:22
03 - Ande 06:42
04 - Star Dust 05:19
05 - South Side 08:38
06 - Val's Blues 06:38

Состав:
  • Louis Smith — trumpet
  • Cannonball Adderley (credited as "Buckshot La Funke") — alto saxophone (tracks 1-3, 5 & 6)
  • Tommy Flanagan (tracks 3, 4 & 6), Duke Jordan (tracks 1, 2 & 5) — piano
  • Doug Watkins     Bass, Bass (Upright
  • Art Taylor     Drums
  • Bob Blumenthal     Liner Notes
  • Leonard Feather     Original Liner Notes
  • Alfred Lion     Producer
  • Tom Wilson     Producer
Доп. инфо:

Луис Смит блестяще дебютировал на этом альбоме Blue Note, первом из двух, выпущенных им перед тем, как стать постоянным преподавателем. Открывающая альбом композиция Дюка Пирсона "Tribute to Brownie" была идеальной для интерпретации Смита, поскольку его стиль находился под сильным влиянием Клиффорда Брауна (умершего в предыдущем году). Он также в отличной форме исполняет четыре своих основных оригинальных произведения и берет особенно запоминающееся соло в призрачном исполнении "Stardust". Альтист Кэннонбол Аддерли (на этом альбоме он выступал под псевдонимом "Buckshot La Funke", который позже использовал Брэнфорд Марсалис), Дюк Джордан или Томми Фланаган на фортепиано, басист Дуг Уоткинс и ударник Арт Тейлор составляют мощный вспомогательный состав, но основное внимание уделяется преступно малоизвестному Луису Смиту. После записи своего второго альбома для Blue Note и перехода на преподавательскую работу, Смит не записывался в качестве лидера до 1978 года. Всем поклонникам бопа и джаза 50-х годов настоятельно рекомендуется приобрести это переиздание на CD, пока оно не исчезло.

Лог проверки качества
foobar2000 1.4.6 / Dynamic Range Meter 1.1.1
log date: 2021-10-07 20:34:07
--------------------------------------------------------------------------------
Analyzed: Louis Smith / Here Comes Louis Smith
--------------------------------------------------------------------------------
DR         Peak         RMS     Duration Track
--------------------------------------------------------------------------------
DR9       -0.05 dB    -9.92 dB      6:39 01-Tribute to Brownie
DR9       -0.08 dB   -10.70 dB      8:22 02-Brill's Blues
DR9       -0.06 dB   -10.17 dB      6:42 03-Ande
DR9       -0.07 dB   -10.92 dB      5:20 04-Star Dust
DR9       -0.06 dB    -9.82 dB      8:38 05-South Side
DR9       -0.02 dB    -9.48 dB      6:38 06-Val's Blues
--------------------------------------------------------------------------------
Number of tracks:  6
Official DR value: DR9
Samplerate:        48000 Hz
Channels:          2
Bits per sample:   24
Bitrate:           1122 kbps
Codec:             FLAC
================================================================================
17:43
163
Нет комментариев. Ваш будет первым!