Поиск

1958 LaVern Baker - LaVern Sings Bessie Smith (2021) {RevOla} [24-44.1]

1958 LaVern Baker - LaVern Sings Bessie Smith (2021) {RevOla} [24-44.1]
Стили:
Дата записи диска:
27 января 1958
Издатель (лейбл):
Носитель:
WEB
Формат:
PCM
Тип рипа:
tracks
Контейнер:
FLAC (*.flac)
Количество каналов:
2.0
Разрядность/ЧД:
24/44,1
Битрейт аудио:
lossless
Время звучания:
00:41:58
Наличие сканов:
только обложка

01 - Gimme A Pigfoot 03:10
02 - Baby Doll 03:27
03 - On Revival Day 03:16
04 - Money Blues 02:54
05 - I Ain't Gonna Play No Second Fiddle 04:05
06 - Back Water Blues 04:42
07 - Empty Bed Blues 04:53
08 - There'll Be A Hot Time In The Old Town Tonight 02:43
09 - Nobody Knows You When You're Down And Out 03:57
10 - After You've Gone 03:09
11 - Young Woman's Blues 02:52
12 - Preaching The Blues 02:50

Состав:
  •     Arranged By – Ernie Wilkins, Nat Pierce, Phil Moore (2)
  •     Baritone Saxophone – Jerome Richardson, Sahib Shihab
  •     Bass – Wendell Marshall
  •     Drums – Joe Marshall
  •     Engineer [Recording] – Tom Dowd
  •     Guitar – Danny Barker
  •     Liner Notes – Charles Edward Smith
  •     Piano – Nat Pierce
  •     Producer – Nesuhi Ertegun
  •     Tenor Saxophone – Paul Quinichette
  •     Trombone – Jimmy Cleveland, Urbie Green, Vic Dickenson
  •     Trumpet – Buck Clayton
  •     Vocals – LaVern Baker
Лог проверки качества
foobar2000 1.5.1 / Dynamic Range Meter 1.1.1
log date: 2020-02-09 22:01:48
--------------------------------------------------------------------------------
Analyzed: Lavern Baker / Sings Bessie Smith
--------------------------------------------------------------------------------
DR         Peak         RMS     Duration Track
--------------------------------------------------------------------------------
DR14      -0.09 dB   -17.88 dB      3:11 01-Gimme A Pigfoot (Remastered)
DR13      -0.91 dB   -17.51 dB      3:28 02-Baby Doll (Remastered)
DR13      -1.24 dB   -16.86 dB      3:17 03-On Revival Day (Remastered)
DR13      -0.45 dB   -16.51 dB      2:54 04-Money Blues (Remastered)
DR13      -0.78 dB   -18.05 dB      4:06 05-I Ain't Gonna Play No Second Fiddle (Remastered)
DR13      -0.35 dB   -17.38 dB      4:42 06-Back Water Blues (Remastered)
DR13      -0.02 dB   -16.26 dB      4:54 07-Empty Bed Blues (Remastered)
DR13      -0.14 dB   -16.47 dB      2:44 08-There'll Be A Hot Time In The Old Town Tonight (Remastered)
DR13      -0.18 dB   -17.84 dB      3:57 09-Nobody Knows You When You're Down And Out (Remastered)
DR12      -1.12 dB   -18.15 dB      3:10 10-After You've Gone (Remastered)
DR12      -2.49 dB   -17.83 dB      2:52 11-Young Woman's Blues (Remastered)
DR12      -0.55 dB   -15.59 dB      2:50 12-Preaching The Blues (Remastered)
--------------------------------------------------------------------------------
Number of tracks:  12
Official DR value: DR13
Samplerate:        44100 Hz
Channels:          2
Bits per sample:   24
Bitrate:           1587 kbps
Codec:             FLAC
================================================================================
Приватный:
Нет (DHT включён)
Размер:
470.42 Мб (493,267,635 байт) » файлов: 16
Участники:
0 раздают, 0 качают (0 участников всего)
Внешние участники:
3 раздают, 1 качают (4 участников всего) [ Обновить ]
23:07
352
Нет комментариев. Ваш будет первым!