Поиск

1958 John Coltrane - Black Pearls (2016) {Prestige} [24-192]

1958 John Coltrane - Black Pearls (2016) {Prestige} [24-192]
Стили:
Дата записи диска:
10 января - 23 мая 1958
Место записи:
Rudy Van Gelder Studio, Englewood Cliffs, New Jersey, USA
Издатель (лейбл):
Носитель:
WEB
Формат:
PCM
Тип рипа:
tracks
Контейнер:
FLAC (*.flac)
Количество каналов:
2.0
Разрядность/ЧД:
24/192
Битрейт аудио:
lossless
Время звучания:
00:38:48
Наличие сканов:
только обложка

Треклист:

01 - Black Pearls (13:10)
02 - Lover Come Back To Me (07:27)
03 - Sweet Sapphire Blues (18:11)

Состав:
  • Donald Byrd     Trumpet
  • Paul Chambers     Bass
  • Chris Clough     Reissue Production Assistance
  • Larissa Collins     Assistant
  • John Coltrane     Composer, Sax (Tenor)
  • Phil DeLancie     Digital Remastering, Mastering
  • Red Garland     Piano
  • Michael Gold     Liner Notes
  • Evelyn Haddad     Assistant
  • Ashley Kahn     Liner Notes
  • Nick Phillips     Reissue Producer
  • Akira Taguchi     Producer
  • Art Taylor     Drums
  • Rudy Van Gelder     Engineer, Liner Notes, Remastering
  • Bob Weinstock     Producer, Supervisor
  • Alan Yoshida     Mastering
Лог проверки качества
foobar2000 1.4.2 / Dynamic Range Meter 1.1.1
log date: 2021-08-03 22:02:06
--------------------------------------------------------------------------------
Analyzed: Donald Byrd / Black Pearls (1)
          John Coltrane / Black Pearls (2-3)
--------------------------------------------------------------------------------
DR         Peak         RMS     Duration Track
--------------------------------------------------------------------------------
DR12      -0.10 dB   -14.48 dB      7:27 02-Lover Come Back To Me
DR13      -0.10 dB   -15.37 dB     13:10 01-Black Pearls
DR13      -0.10 dB   -15.46 dB     18:11 03-Sweet Sapphire Blues
--------------------------------------------------------------------------------
Number of tracks:  3
Official DR value: DR13
Samplerate:        192000 Hz
Channels:          2
Bits per sample:   24
Bitrate:           6608 kbps
Codec:             FLAC
================================================================================
По всем вопросам пишите личное сообщение пользователю M0p94ok.
11:36
196
Нет комментариев. Ваш будет первым!