Поиск

1958 Della Reese - What Do You Know About Love? (2021) {RevOla} [24-96]

1958 Della Reese - What Do You Know About Love? (2021) {RevOla} [24-96]
Стили:
Носитель:
WEB
Формат:
PCM
Тип рипа:
tracks
Контейнер:
FLAC (*.flac)
Количество каналов:
2.0
Разрядность/ЧД:
24/96
Битрейт аудио:
lossless
Время звучания:
00:34:54
Наличие сканов:
только обложка

01 - What Do You Know About Love (03:08)
02 - When I Fall In Love (03:10)
03 - Something I Dreamed Last Night (03:35)
04 - I Got It Bad (03:19)
05 - I'll Never Be The Same (02:11)
06 - You Better Go Now (02:45)
07 - I'm Nobody's Baby (03:09)
08 - I Never Knew (03:06)
09 - I Thought of You Last Night (02:08)
10 - You Don't Know What Love Is (02:39)
11 - I'm Thru With Love (03:18)
12 - That's All There Is (02:20)

Состав:
  • Della Reese     Vocals
  • Conductor [Orchestra] – Reg Owen
  • Producer – Morty Palitz
Лог проверки качества
foobar2000 1.4.2 / Dynamic Range Meter 1.1.1
log date: 2021-07-31 08:58:27
--------------------------------------------------------------------------------
Analyzed: Della Reese / What Do You Know About Love?
--------------------------------------------------------------------------------
DR         Peak         RMS     Duration Track
--------------------------------------------------------------------------------
DR10      -0.97 dB   -14.76 dB      3:09 01-What Do You Know About Love? (Remastered)
DR11      -0.24 dB   -15.16 dB      3:11 02-When I Fall In Love (Remastered)
DR10      -0.08 dB   -14.57 dB      3:35 03-Something I Dreamed Last Night (Remastered)
DR11      -0.35 dB   -15.40 dB      3:19 04-I Got It Bad (Remastered)
DR10      -0.06 dB   -15.17 dB      2:12 05-I'll Never Be The Same (Remastered)
DR11       0.00 dB   -14.71 dB      2:45 06-You Better Go Now (Remastered)
DR10      -1.10 dB   -14.52 dB      3:09 07-I'm Nobody's Baby (Remastered)
DR10       0.00 dB   -14.16 dB      3:07 08-I Never Knew (Remastered)
DR11      -0.60 dB   -16.53 dB      2:09 09-I Thought of You Last Night (Remastered)
DR11      -0.65 dB   -15.36 dB      2:40 10-You Don't Know What Love Is (Remastered)
DR11       0.00 dB   -14.62 dB      3:19 11-I'm Thru With Love (Remastered)
DR10      -0.75 dB   -14.25 dB      2:21 12-That's All There Is (Remastered)
--------------------------------------------------------------------------------
Number of tracks:  12
Official DR value: DR11
Samplerate:        96000 Hz
Channels:          2
Bits per sample:   24
Bitrate:           2236 kbps
Codec:             FLAC
================================================================================
Приватный:
Нет (DHT включён)
Размер:
586.40 Мб (614,883,001 байт) » файлов: 13
Участники:
0 раздают, 0 качают (0 участников всего)
Внешние участники:
3 раздают, 1 качают (4 участников всего) [ Обновить ]
20:45
494
Нет комментариев. Ваш будет первым!