Поиск

1958 David "Fathead" Newman - Ray Charles Presents David Newman {RevOla} [24-44,1]

1958 David "Fathead" Newman - Ray Charles Presents David Newman {RevOla} [24-44,1]
Стили:
Издатель (лейбл):
Треклист:

01. Hard Times (4:41)
02. Weird Beard (4:47)
03. Willow Weep For Me (4:57)
04. Bill For Bennie (4:14)
05. Sweet Eyes (3:43)
06. Fathead (5:21)
07. Mean To Me (4:14)
08. Tin Tin Deo (5:19)

Доп. инфо:

Формат записи/Источник записи: [TR24][OF]
Издание: Remastered
Год издания/переиздания диска: 1958/2019
Издатель (лейбл): RevOla
Продолжительность: 00:37:13
Наличие сканов в содержимом раздачи: Нет

Контейнер: FLAC (*.flac)
Тип рипа: tracks
Разрядность: 24/44,1
Количество каналов: 2.0

Источник (релизер): Qobuz

Лог проверки качества
foobar2000 1.4.3 / Dynamic Range Meter 1.1.1
log date: 2020-01-21 15:25:28

--------------------------------------------------------------------------------
Analyzed: David "Fathead" Newman / "Fathead" - Ray Charles Presents David Newman
--------------------------------------------------------------------------------

DR         Peak         RMS     Duration Track
--------------------------------------------------------------------------------
DR12       0.00 dB   -13.91 dB      4:41 01-Hard Times (Remastered)
DR14       0.00 dB   -15.69 dB      4:47 02-Weird Beard (Remastered)
DR14      -1.02 dB   -18.01 dB      4:57 03-Willow Weep For Me (Remastered)
DR11      -0.29 dB   -12.93 dB      4:14 04-Bill For Bennie (Remastered)
DR11      -0.29 dB   -12.60 dB      3:43 05-Sweet Eyes (Remastered)
DR13       0.00 dB   -14.77 dB      5:21 06-Fathead (Remastered)
DR12       0.00 dB   -13.99 dB      4:14 07-Mean To Me (Remastered)
DR11      -0.40 dB   -13.65 dB      5:19 08-Tin Tin Deo (Remastered)
--------------------------------------------------------------------------------

Number of tracks:  8
Official DR value: DR12

Samplerate:        44100 Hz
Channels:          2
Bits per sample:   24
Bitrate:           1573 kbps
Codec:             FLAC
================================================================================
Приватный:
Нет (DHT включён)
Размер:
441.33 Мб (462,764,015 байт) » файлов: 12
Участники:
0 раздают, 0 качают (0 участников всего)
Внешние участники:
10 раздают, 3 качают (13 участников всего) [ Обновить ]
Есть вопросы - пишите личное сообщение пользователю M0p94ok.
18:59
20
Нет комментариев. Ваш будет первым!