Поиск

1958 (2004) Sonny Stitt - Personal Appearance {Verve MG V-8324 (B0002028-2)}

1958 (2004) Sonny Stitt - Personal Appearance {Verve MG V-8324 (B0002028-2)}
Страна-производитель диска (релиза):
USA
Дата записи диска:
12 мая 1957
Дата издания диска:
1958
Дата переиздания диска:
2004
Номер по каталогу:
MG V-8324
Носитель:
CD
Битрейт аудио:
lossless
Аудиокодек:
FLAC (*.flac)
Тип рипа:
tracks
Время звучания:
47:34
Наличие сканов:
  • да
Релизёр (источник):
AlexMachen
Треклист:

01. Easy to Love (4:45)
02. Easy Living (4:49)
03. Autumn in New York (2:21)
04. You'd Be So Nice To Come Home To (4:52)
05. For Some Friends (4:44)
06. Between the Devil and the Deep Blue Sea (4:27)
07. I Never Knew (5:14)
08. East of the Sun (West of the Moon) (5:31)
09. Original? (4:34)
10. Avalon (2:56)
11. Blues Greasy (3:20)

  • Fine Sound, New York, NY
Состав:
  • Kenny Dennis Drums
  • Norman Granz Audio Production, Producer
  • Nat Hentoff Liner Notes
  • Sonny Stitt Composer, Sax (Alto), Sax (Tenor)
  • Bobby Timmons Piano
  • Edgar Willis Bass, Guitar (Bass)
<spoiler title="Лог создания рипа"><pre>
EAC extraction logfile from 29. March 2007, 21:23 for CD
Sonny Stitt / Personal Appearances

Used drive : HL-DT-STCDRW/DVD GCC4482 Adapter: 1 ID: 0
Read mode : Secure with NO C2, accurate stream, disable cache
Read offset correction : 6
Overread into Lead-In and Lead-Out : No

Used output format : C:\Eac\Codecs\flac.exe (User Defined Encoder)
320 kBit/s
Additional command line options : -8 -V -T "artist=%a" -T "title=%t" -T "album=%g" -T "date=%y" -T "tracknumber=%n" -T "genre=%m" -T "comment=EAC Flac 1.1.2 -8" %s

Other options :
Fill up missing offset samples with silence : Yes
Delete leading and trailing silent blocks : No
Installed external ASPI interface

Track 1
Filename C:\Documents and Settings\Desktop\ss\01 - Easy to Love.wav

Pre-gap length 0:00:02.00

Peak level 94.4 %
Track quality 100.0 %
Test CRC F121F15D
Copy CRC F121F15D
Copy OK

Track 2
Filename C:\Documents and Settings\Desktop\ss\02 - Easy Living.wav

Pre-gap length 0:00:02.52

Peak level 81.5 %
Track quality 100.0 %
Test CRC C350EBBA
Copy CRC C350EBBA
Copy OK

Track 3
Filename C:\Documents and Settings\Desktop\ss\03 - Autumn in New York.wav

Pre-gap length 0:00:02.84

Peak level 90.3 %
Track quality 100.0 %
Test CRC 5905B003
Copy CRC 5905B003
Copy OK

Track 4
Filename C:\Documents and Settings\Desktop\ss\04 - You'd Be So Nice To Come Home To.wav

Pre-gap length 0:00:02.70

Peak level 94.4 %
Track quality 100.0 %
Test CRC F9DBD4A9
Copy CRC F9DBD4A9
Copy OK

Track 5
Filename C:\Documents and Settings\Desktop\ss\05 - For Some Friends.wav

Pre-gap length 0:00:02.98

Peak level 94.4 %
Track quality 100.0 %
Test CRC 42F8C650
Copy CRC 42F8C650
Copy OK

Track 6
Filename C:\Documents and Settings\Desktop\ss\06 - Between the Devil and the Deep Blue Sea.wav

Pre-gap length 0:00:02.81

Peak level 94.4 %
Track quality 100.0 %
Test CRC AD1EEFD3
Copy CRC AD1EEFD3
Copy OK

Track 7
Filename C:\Documents and Settings\Desktop\ss\07 - I Never Knew.wav

Pre-gap length 0:00:02.60

Peak level 94.4 %
Track quality 99.9 %
Test CRC D423F3D4
Copy CRC D423F3D4
Copy OK

Track 8
Filename C:\Documents and Settings\Desktop\ss\08 - East of the Sun (West of the Moon).wav

Pre-gap length 0:00:02.74

Peak level 94.4 %
Track quality 100.0 %
Test CRC 64FC92EF
Copy CRC 64FC92EF
Copy OK

Track 9
Filename C:\Documents and Settings\Desktop\ss\09 - Original .wav

Pre-gap length 0:00:02.74

Peak level 86.2 %
Track quality 100.0 %
Test CRC D4E14E59
Copy CRC D4E14E59
Copy OK

Track 10
Filename C:\Documents and Settings\Desktop\ss\10 - Avalon.wav

Pre-gap length 0:00:02.76

Peak level 90.4 %
Track quality 100.0 %
Test CRC B3CCB1CF
Copy CRC B3CCB1CF
Copy OK

Track 11
Filename C:\Documents and Settings\Desktop\ss\11 - Blues Greasy.wav

Pre-gap length 0:00:02.82

Peak level 89.5 %
Track quality 99.9 %
Test CRC F225276B
Copy CRC F225276B
Copy OK

No errors occured

End of status report
</pre></spoiler>
22:50
71
RSS
Нет комментариев. Ваш будет первым!