Поиск

1958 (1997) Art Blakey & The Jazz Messengers - Theory of Art {RCA ND86286}

1958 (1997) Art Blakey & The Jazz Messengers - Theory of Art {RCA ND86286}
Страна-производитель диска (релиза):
USA
Дата записи диска:
2-8 апреля 1957
Дата издания диска:
1958
Дата переиздания диска:
1997
Издатель (лейбл):
Номер по каталогу:
ND86286
Носитель:
CD
Битрейт аудио:
lossless
Аудиокодек:
FLAC (*.flac)
Тип рипа:
tracks+.cue
Время звучания:
53:49
Наличие сканов:
  • да
Релизёр (источник):
e-mule

Треклист:

01. A Night in Tunisia (Gillespie, Paparelli) 12:50
02. Off the Wall (Griffin) 7:11
03. Couldn't It Be You? (Blakey, McLean) 8:06
04. Theory of Art (Hardman) 9:40
05. Evans (Rollins) 5:46
06. A Night at Tony's (Gryce) 4:19
07. Social Call (Gryce, Hendricks) 5:16

Состав:
  • Art Blakey (drums)
  • Bill Hardman (trumpet)
  • Jackie McLean (alto sax) (1-5)
  • Johnny Griffin (tenor sax)
  • Sam Dockery (piano) (1-5)
  • Jimmy ("Spanky") De Brest (bass)
  • Lee Morgan (trumpet) (6-7)
  • Melba Liston (trombone) (6-7)
  • Sahib Shihab (alto sax) (6-7)
  • Cecil Payne (baritone sax) (6-7)
  • Wynton Kelly (piano) (6-7)

Диск состоит из двух уникальных сессий Art Blakey: первые пять композиций записаны 8 апреля 1957 секстетом, который включает и альт-саксофониста Jackie McLean'а, который только что покинул группу, и заменившего его тенор-саксофониста Johnny Griffin'а, а также трубача Bill Hardman'а. Следующие две композиции исполнены 2 апреля 1957 нонетом, который включает будущего Messenger'а Lee Morgan'а, тромбонистки Melba Liston и Griffin'а. Диск оцифрован в 1997 году (RCA 68730).

Лог создания рипа
EAC extraction logfile from 21. May 2006, 16:43 for CD
Art Blakey / Theory of Art
Used drive : LITE-ON CD-ROM LTN-527T Adapter: 1 ID: 1
Read mode : Secure with NO C2, accurate stream, disable cache
Combined read/write offset correction : 12
Overread into Lead-In and Lead-Out : No
Used output format : C:\Program Files\FLAC\flac.exe (User Defined Encoder) 320 kBit/s Additional command line options : -5 -V -T "artist=%a" -T "title=%t" -T "album=%g" -T "date=%y" -T "tracknumber=%n" -T "genre=%m" %s
Other options : Fill up missing offset samples with silence : Yes Delete leading and trailing silent blocks : No Native Win32 interface for Win NT & 2000
Track 1 Filename D:\Downloads\Art Blakey - Theory of Art (RCA 1957)[FLAC][Complete Covers]\01 - A Night in Tunisia.wav Pre-gap length 0:00:02.00 Peak level 74.9 % Track quality 100.0 % Test CRC 40D05ED5 Copy CRC 40D05ED5 Copy OK
Track 2 Filename D:\Downloads\Art Blakey - Theory of Art (RCA 1957)[FLAC][Complete Covers]\02 - Off the Wall.wav Pre-gap length 0:00:00.73 Peak level 73.9 % Track quality 99.9 % Test CRC 0266CC3F Copy CRC 0266CC3F Copy OK
Track 3 Filename D:\Downloads\Art Blakey - Theory of Art (RCA 1957)[FLAC][Complete Covers]\03 - Couldn't It Be You.wav Pre-gap length 0:00:01.53 Peak level 77.5 % Track quality 100.0 % Test CRC 89A3B887 Copy CRC 89A3B887 Copy OK
Track 4 Filename D:\Downloads\Art Blakey - Theory of Art (RCA 1957)[FLAC][Complete Covers]\04 - Theory of Art.wav Pre-gap length 0:00:02.20 Peak level 77.6 % Track quality 100.0 % Test CRC 536A667B Copy CRC 536A667B Copy OK
Track 5 Filename D:\Downloads\Art Blakey - Theory of Art (RCA 1957)[FLAC][Complete Covers]\05 - Evans.wav Pre-gap length 0:00:01.22 Peak level 81.8 % Track quality 100.0 % Test CRC BF990772 Copy CRC BF990772 Copy OK
Track 6 Filename D:\Downloads\Art Blakey - Theory of Art (RCA 1957)[FLAC][Complete Covers]\06 - A Night at Tony's.wav Pre-gap length 0:00:01.56 Peak level 76.7 % Track quality 100.0 % Test CRC 8622F3D9 Copy CRC 8622F3D9 Copy OK
Track 7 Filename D:\Downloads\Art Blakey - Theory of Art (RCA 1957)[FLAC][Complete Covers]\07 - Social Call.wav Pre-gap length 0:00:01.56 Peak level 90.1 % Track quality 99.9 % Test CRC 16919DE8 Copy CRC 16919DE8 Copy OK
No errors occured
End of status report
Содержание индексной карты (.CUE)
REM DISCID 590C9E07
REM COMMENT "ExactAudioCopy v0.95b3"
PERFORMER "Art Blakey"
TITLE "Theory of Art"
FILE "01 - A Night in Tunisia.wav" WAVE TRACK 01 AUDIO TITLE "A Night in Tunisia" PERFORMER "Art Blakey" INDEX 01 00:00:00 TRACK 02 AUDIO TITLE "Off the Wall" PERFORMER "Art Blakey" INDEX 00 12:58:62
FILE "02 - Off the Wall.wav" WAVE INDEX 01 00:00:00 TRACK 03 AUDIO TITLE "Couldn't It Be You" PERFORMER "Art Blakey" INDEX 00 07:15:38
FILE "03 - Couldn't It Be You.wav" WAVE INDEX 01 00:00:00 TRACK 04 AUDIO TITLE "Theory of Art" PERFORMER "Art Blakey" INDEX 00 08:10:40
FILE "04 - Theory of Art.wav" WAVE INDEX 01 00:00:00 TRACK 05 AUDIO TITLE "Evans" PERFORMER "Art Blakey" INDEX 00 09:46:25
FILE "05 - Evans.wav" WAVE INDEX 01 00:00:00 TRACK 06 AUDIO TITLE "A Night at Tony's" PERFORMER "Art Blakey" INDEX 00 05:49:58
FILE "06 - A Night at Tony's.wav" WAVE INDEX 01 00:00:00 TRACK 07 AUDIO TITLE "Social Call" PERFORMER "Art Blakey" INDEX 00 04:21:43
FILE "07 - Social Call.wav" WAVE INDEX 01 00:00:00
Приватный:
Нет (DHT включён)
Размер:
271.70 Мб (284,902,776 байт) » файлов: 26
Участники:
0 раздают, 0 качают (0 участников всего)
Внешние участники:
5 раздают, 1 качают (6 участников всего) [ Обновить ]
10:00
201
RSS
Нет комментариев. Ваш будет первым!