Поиск

1957 Abbey Lincoln - Abbey Lincoln's Affair... The Story of a Girl in Love (2021) {Music Manager} [24-48]

1957 Abbey Lincoln - Abbey Lincoln's Affair... The Story of a Girl in Love (2021) {Music Manager} [24-48]
Стили:
Дата записи диска:
1 июля; 5 ноября - 6 ноября 1956
Место записи:
Hollywood, California, USA
Издатель (лейбл):
Носитель:
WEB
Формат:
PCM
Тип рипа:
tracks
Контейнер:
FLAC (*.flac)
Количество каналов:
2.0
Разрядность/ЧД:
24/48
Битрейт аудио:
lossless
Время звучания:
00:32:32
Наличие сканов:
только обложка

Треклист:

01 - Love Walked In 02:34
02 - I Didn't Know About You 02:47
03 - Would I Love You 02:25
04 - I Wake Up Smiling 02:07
05 - This Can't Be Love 02:22
06 - Crazy He Calls Me 02:56
07 - Two Cigarettes in the Dark 02:38
08 - The Masquerade Is Over 03:23
09 - Take Me in Your Arms 03:08
10 - Together 01:54
11 - Affair 03:02
12 - No More 03:16

Состав:
Лог проверки качества
foobar2000 1.4.3 / Dynamic Range Meter 1.1.1
log date: 2021-07-09 17:28:10

--------------------------------------------------------------------------------
Analyzed: Abbey Lincoln / Abbey Lincoln's Affair... The Story of a Girl in Love
--------------------------------------------------------------------------------

DR         Peak         RMS     Duration Track
--------------------------------------------------------------------------------
DR10      -0.06 dB   -14.58 dB      2:34 01-Love Walked In
DR10      -0.38 dB   -15.60 dB      2:48 02-I Didn't Know About You
DR11      -0.01 dB   -13.78 dB      2:25 03-Would I Love You
DR10      -0.07 dB   -15.37 dB      2:07 04-I Wake Up Smiling
DR11      -0.06 dB   -13.72 dB      2:23 05-This Can't Be Love
DR12      -0.07 dB   -15.52 dB      2:57 06-Crazy He Calls Me
DR10      -0.02 dB   -14.03 dB      2:39 07-Two Cigarettes in the Dark
DR11      -0.07 dB   -14.25 dB      3:23 08-The Masquerade Is Over
DR11      -0.30 dB   -16.16 dB      3:08 09-Take Me in Your Arms
DR10      -0.05 dB   -13.39 dB      1:55 10-Together
DR10      -0.01 dB   -13.31 dB      3:03 11-Affair
DR11      -0.42 dB   -15.38 dB      3:17 12-No More
--------------------------------------------------------------------------------

Number of tracks:  12
Official DR value: DR11

Samplerate:        48000 Hz
Channels:          2
Bits per sample:   24
Bitrate:           1157 kbps
Codec:             FLAC
================================================================================
По всем вопросам пишите личное сообщение пользователю M0p94ok.
10:25
241
Нет комментариев. Ваш будет первым!