Поиск

1957 (2006) Art Blakey & The Jazz Messengers - Hard Bop [Mosaic Singles]

1957 (2006) Art Blakey & The Jazz Messengers - Hard Bop [Mosaic Singles]
Страна-производитель диска (релиза):
USA
Дата записи диска:
12-13 декабря 1956
Дата издания диска:
1957
Дата переиздания диска:
2006
Номер по каталогу:
MCD-1005
Носитель:
CD
Битрейт аудио:
lossless
Аудиокодек:
FLAC (*.flac)
Тип рипа:
tracks+.cue
Время звучания:
66:28
Наличие сканов:
  • да
Релизёр (источник):
mironov_ad
Треклист:

01. Cranky Spanky (Hardman) 4:47
02. Stella by Starlight (Young, Washington) 8:52
03. My Heart Stood Still (Rodgers, Hart) 7:17
04. Little Melonae (McLean) 8:20
05. Stanley's Stiff Chickens (Hardman, McLean) 9:37
06. Nica's Tempo (Gryce) 8:18
07. Dee's Dilemma (Waldron) 8:26
08. JUst for Marty (Hardman) 5:47
09. Gershwin Medley 4:51
a. Rapsody In Blue (Gershwin)
b. Summertime (Gershwin, Heyward)
c. Someone To Watch Over Me (Gershwin, Gershwin)
d. The Man I Love (Gershwin, Gershwin)

Состав:
  • Art Blakey Drums
  • Harold Chapman Engineer
  • Michael Cuscuna Liner Notes, Release Production
  • Spanky DeBrest Bass
  • Sam Dockery Piano
  • Bill Hardman Composer, Trumpet
  • Nat Hentoff Liner Notes
  • Cal Lampley Liner Notes, Producer
  • Jackie McLean Composer, Sax (Alto)

Сессия записи альбомов Hard Bop (1-5 здесь) и половины (второй) Drum Suite (6-8) на Columbia — первое появление Messengers в новом составе после распада предыдущих Messengers с Horace Silver. На данном диске, оцифрованном под лейблом Mosaic Records в 2006 году, кроме этих записей, My heart Stood Still издана в полной версии (появлявшейся в виде сингла) и добавлен Gershwin Medley. Обложка воспроизводит оригинальную обложку альбома Hard Bop.
EAC extraction logfile from 1. August 2006, 16:57 for CD
Art Blakey & the Jazz Messengers / Hard Bop
Used drive : LITE-ON CD-ROM LTN-527T Adapter: 1 ID: 1
Read mode : Secure with NO C2, accurate stream, disable cache
Combined read/write offset correction : 12
Overread into Lead-In and Lead-Out : No
Used output format : C:\Program Files\FLAC\flac.exe (User Defined Encoder)
320 kBit/s
Additional command line options : -5 -V -T "artist=%a" -T "title=%t" -T "album=%g" -T "date=%y" -T "tracknumber=%n" -T "genre=%m" %s
Other options :
Fill up missing offset samples with silence : Yes
Delete leading and trailing silent blocks : No
Native Win32 interface for Win NT & 2000
Track 1
Filename D:\Downloads\Art Blakey - Hard Bop (Mosaic 1956)[FLAC][Scans]\01 - Cranky Spanky.wav
Pre-gap length 0:00:02.00
Peak level 100.0 %
Track quality 100.0 %
Test CRC 8DE9B092
Copy CRC 8DE9B092
Copy OK
Track 2
Filename D:\Downloads\Art Blakey - Hard Bop (Mosaic 1956)[FLAC][Scans]\02 - Stella by Starlight.wav
Pre-gap length 0:00:01.68
Peak level 100.0 %
Track quality 99.9 %
Test CRC 15DBEC96
Copy CRC 15DBEC96
Copy OK
Track 3
Filename D:\Downloads\Art Blakey - Hard Bop (Mosaic 1956)[FLAC][Scans]\03 - My Heart Stood Still.wav
Pre-gap length 0:00:01.96
Peak level 100.0 %
Track quality 100.0 %
Test CRC 3F0B21AA
Copy CRC 3F0B21AA
Copy OK
Track 4
Filename D:\Downloads\Art Blakey - Hard Bop (Mosaic 1956)[FLAC][Scans]\04 - Little Melonae.wav
Pre-gap length 0:00:01.66
Peak level 100.0 %
Track quality 100.0 %
Test CRC AF07A4C3
Copy CRC AF07A4C3
Copy OK
Track 5
Filename D:\Downloads\Art Blakey - Hard Bop (Mosaic 1956)[FLAC][Scans]\05 - Stanley's Stiff Chickens.wav
Pre-gap length 0:00:01.97
Peak level 99.9 %
Track quality 100.0 %
Test CRC 840C43B6
Copy CRC 840C43B6
Copy OK
Track 6
Filename D:\Downloads\Art Blakey - Hard Bop (Mosaic 1956)[FLAC][Scans]\06 - Nica's Tempo [bonus track].wav
Pre-gap length 0:00:01.49
Peak level 100.0 %
Track quality 99.9 %
Test CRC 21BD4864
Copy CRC 21BD4864
Copy OK
Track 7
Filename D:\Downloads\Art Blakey - Hard Bop (Mosaic 1956)[FLAC][Scans]\07 - Dee's Dilemma [bonus track].wav
Pre-gap length 0:00:01.72
Peak level 100.0 %
Track quality 99.9 %
Test CRC C328CB21
Copy CRC C328CB21
Copy OK
Track 8
Filename D:\Downloads\Art Blakey - Hard Bop (Mosaic 1956)[FLAC][Scans]\08 - Just for Marty [bonus track].wav
Pre-gap length 0:00:01.96
Peak level 100.0 %
Track quality 100.0 %
Test CRC EC8DDF2E
Copy CRC EC8DDF2E
Copy OK
Track 9
Filename D:\Downloads\Art Blakey - Hard Bop (Mosaic 1956)[FLAC][Scans]\09 - Gershwin Medley [bonus track].wav
Pre-gap length 0:00:01.65
Peak level 100.0 %
Track quality 99.9 %
Test CRC AA20E474
Copy CRC AA20E474
Copy OK
No errors occured
End of status report
11:59
83
RSS
Нет комментариев. Ваш будет первым!