Вы используете незарегистрированную версию компонента "Вкладки"!

Поиск

1956 The Buddy Collette-Chico Hamilton Sextet - Tanganyika (2020) {RevOla} [24-96]

1956 The Buddy Collette-Chico Hamilton Sextet - Tanganyika (2020) {RevOla} [24-96]
Стили:
Издатель (лейбл):
Доп. инфо:

• Формат записи | Источник записи: [TR24][OF]
• Наличие водяных знаков: Нет
• Год издания релиза: 1956 (remastered 2020)
• Лейбл: RevOla
• Продолжительность: 00:42:03
• Источник: internet
• WEB релиз: ссылка
• Контейнер: FLAC (*.flac)
• Тип рипа: tracks
• Разрядность: 24/96
• Формат: PCM
• Количество каналов: 2.0
• Наличие сканов: front

Лог проверки качества
foobar2000 1.3.9 / Замер динамического диапазона (DR) 1.1.1
Дата отчёта:  2020-02-13 08:43:58

--------------------------------------------------------------------------------
Анализ:   The Buddy Collette-Chico Hamilton Sextet / Tanganyika
--------------------------------------------------------------------------------

DR         Пики         RMS           Продолжительность трека
--------------------------------------------------------------------------------
DR13      -2.79 дБ   -20.00 дБ      4:29 01-Green Dream (Remastered)
DR12      -2.39 дБ   -16.40 дБ      2:27 02-It's You (Remastered)
DR15       0.00 дБ   -20.24 дБ      3:24 03-A Walk On The Veldt (Remastered)
DR15      -1.66 дБ   -19.87 дБ      3:16 04-How Long Has This Been Going On? (Remastered)
DR12      -1.84 дБ   -16.54 дБ      6:49 05-The Blindfold Test (Remastered)
DR11      -4.15 дБ   -17.70 дБ      2:44 06-Jungle Pogo Stick (Remastered)
DR12      -7.33 дБ   -23.71 дБ      4:58 07-Tanganyika (Remastered)
DR15      -0.79 дБ   -19.84 дБ      4:43 08-Wagnervous (Remastered)
DR15      -1.39 дБ   -19.56 дБ      2:44 09-And So Is Love (Remastered)
DR17      -2.48 дБ   -23.17 дБ      6:31 10-Coming Back For More (Remastered)
--------------------------------------------------------------------------------

Количество треков: 10
Реальные значения DR: DR14

Частота:   96000 Гц
Каналов:   2
Разрядность:   24
Битрейт:   2430 кбит/с
Кодек:   FLAC
================================================================================
Any questions - support@pro-jazz.com. Есть вопросы - support@pro-jazz.com
08:18
304
Нет комментариев. Ваш будет первым!