Поиск

1956 Kenny Dorham - 'Round About Midnight at the Cafe Bohemia (1995) {Blue Note CDP 724383357628} [2CD]

1956 Kenny Dorham - 'Round About Midnight at the Cafe Bohemia (1995) {Blue Note CDP 724383357628} [2CD]
Битрейт аудио:
lossless
Треклист:
 
CD1 {65:41}

01. Monaco (Dorham) - 6:44
02. 'Round About Midnight (Monk-Williams-Hanighen) - 7:46
03. Mexico City (Dorham) - 6:02
04. A Night in Tunisia (Gillespie-Paparelli) - 9:37
05. Autumn in New York (Duke) - 4:39
06. Hill's Edge (Dorham) - 8:20
07. K.D.'s Blues (Dorham) - 9:28
08. Who Cares? (Gershwin) - 6:20
09. Mexico City (alternate take) (Dorham) - 6:45

 
Лог создания рипа
Exact Audio Copy V1.3 from 2. September 2016
EAC extraction logfile from 27. December 2018, 16:41
Kenny Dorham / The Complete 'Round About Midnight At The Cafe Bohemia
Used drive  : PIONEER BD-RW   BDR-208D   Adapter: 1  ID: 0
Read mode               : Secure
Utilize accurate stream : Yes
Defeat audio cache      : Yes
Make use of C2 pointers : No
Read offset correction                      : 667
Overread into Lead-In and Lead-Out          : No
Fill up missing offset samples with silence : Yes
Delete leading and trailing silent blocks   : No
Null samples used in CRC calculations       : Yes
Used interface                              : Native Win32 interface for Win NT & 2000
Gap handling                                : Appended to previous track
Used output format              : User Defined Encoder
Selected bitrate                : 1024 kBit/s
Quality                         : High
Add ID3 tag                     : No
Command line compressor         : C:\Program Files (x86)\Exact Audio Copy\Flac\flac.exe
Additional command line options : -8 -e -V -T "ARTIST=%artist%" -T "TITLE=%title%" -T "ALBUM=%albumtitle%" -T "DATE=%year%" -T "TRACKNUMBER=%tracknr%" -T "GENRE=%genre%" -T "PERFORMER=%albuminterpret%" -T "COMPOSER=%composer%" %haslyrics%--tag-from-file=LYRICS="%lyricsfile%"%haslyrics% -T "ALBUMARTIST=%albumartist%" -T "DISCNUMBER=%cdnumber%" -T "TOTALDISCS=%totalcds%" -T "TOTALTRACKS=%numtracks%" -T "COMMENT=%comment%" %source% -o %dest%
TOC of the extracted CD
     Track |   Start  |  Length  | Start sector | End sector
    ---------------------------------------------------------
        1  |  0:00.32 |  6:43.38 |        32    |    30294
        2  |  6:43.70 |  7:45.52 |     30295    |    65221
        3  | 14:29.47 |  6:01.70 |     65222    |    92366
        4  | 20:31.42 |  9:36.65 |     92367    |   135631
        5  | 30:08.32 |  4:39.20 |    135632    |   156576
        6  | 34:47.52 |  8:19.65 |    156577    |   194066
        7  | 43:07.42 |  9:28.23 |    194067    |   236689
        8  | 52:35.65 |  6:19.70 |    236690    |   265184
        9  | 58:55.60 |  6:45.35 |    265185    |   295594
Track  1
     Filename K:\Musique\The Complete 'Round About Midnight At The Cafe Bohemia\CD1\01 - Monaco.wav
     Pre-gap length  0:00:02.42
     Peak level 93.4 %
     Extraction speed 5.5 X
     Track quality 100.0 %
     Test CRC 3C8B8EAF
     Copy CRC 3C8B8EAF
     Accurately ripped (confidence 3)  [3378067D]  (AR v2)
     Copy OK
Track  2
     Filename K:\Musique\The Complete 'Round About Midnight At The Cafe Bohemia\CD1\02 - 'Round About Midnight.wav
     Pre-gap length  0:00:00.04
     Peak level 74.8 %
     Extraction speed 6.4 X
     Track quality 100.0 %
     Test CRC CA83E890
     Copy CRC CA83E890
     Accurately ripped (confidence 3)  [E164465F]  (AR v2)
     Copy OK
Track  3
     Filename K:\Musique\The Complete 'Round About Midnight At The Cafe Bohemia\CD1\03 - Mexico City.wav
     Pre-gap length  0:00:00.02
     Peak level 100.0 %
     Extraction speed 7.0 X
     Track quality 100.0 %
     Test CRC 53F4E11E
     Copy CRC 53F4E11E
     Accurately ripped (confidence 3)  [DB3B79DB]  (AR v2)
     Copy OK
Track  4
     Filename K:\Musique\The Complete 'Round About Midnight At The Cafe Bohemia\CD1\04 - A Night In Tunisia.wav
     Pre-gap length  0:00:00.49
     Peak level 89.5 %
     Extraction speed 7.9 X
     Track quality 100.0 %
     Test CRC EE759E5F
     Copy CRC EE759E5F
     Accurately ripped (confidence 3)  [47CE6EA5]  (AR v2)
     Copy OK
Track  5
     Filename K:\Musique\The Complete 'Round About Midnight At The Cafe Bohemia\CD1\05 - Autumn In New York.wav
     Pre-gap length  0:00:00.02
     Peak level 75.4 %
     Extraction speed 7.9 X
     Track quality 100.0 %
     Test CRC 1A1BAEB4
     Copy CRC 1A1BAEB4
     Accurately ripped (confidence 3)  [5F92A1CE]  (AR v2)
     Copy OK
Track  6
     Filename K:\Musique\The Complete 'Round About Midnight At The Cafe Bohemia\CD1\06 - Hill's Edge.wav
     Pre-gap length  0:00:00.02
     Peak level 100.0 %
     Extraction speed 8.7 X
     Track quality 100.0 %
     Test CRC 722E22BC
     Copy CRC 722E22BC
     Accurately ripped (confidence 3)  [F726C708]  (AR v2)
     Copy OK
Track  7
     Filename K:\Musique\The Complete 'Round About Midnight At The Cafe Bohemia\CD1\07 - K.D.'s Blues.wav
     Pre-gap length  0:00:00.33
     Peak level 100.0 %
     Extraction speed 9.4 X
     Track quality 100.0 %
     Test CRC 59031A5E
     Copy CRC 59031A5E
     Accurately ripped (confidence 3)  [A5BDC241]  (AR v2)
     Copy OK
Track  8
     Filename K:\Musique\The Complete 'Round About Midnight At The Cafe Bohemia\CD1\08 - Who Cares.wav
     Pre-gap length  0:00:00.37
     Peak level 100.0 %
     Extraction speed 9.5 X
     Track quality 100.0 %
     Test CRC 89891B7A
     Copy CRC 89891B7A
     Accurately ripped (confidence 3)  [3A08E780]  (AR v2)
     Copy OK
Track  9
     Filename K:\Musique\The Complete 'Round About Midnight At The Cafe Bohemia\CD1\09 - Mexico City (Alternate Take).wav
     Pre-gap length  0:00:00.06
     Peak level 100.0 %
     Extraction speed 9.9 X
     Track quality 100.0 %
     Test CRC A138EB13
     Copy CRC A138EB13
     Accurately ripped (confidence 3)  [9EBCF72B]  (AR v2)
     Copy OK
All tracks accurately ripped
No errors occurred
End of status report
---- CUETools DB Plugin V2.1.6
[CTDB TOCID: xN3uhEJRAgQ.mAEoGt3N8stSjGE-] found
Submit result: xN3uhEJRAgQ.mAEoGt3N8stSjGE- has been confirmed
Track | CTDB Status
  1   | (6/6) Accurately ripped
  2   | (6/6) Accurately ripped
  3   | (6/6) Accurately ripped
  4   | (6/6) Accurately ripped
  5   | (6/6) Accurately ripped
  6   | (6/6) Accurately ripped
  7   | (6/6) Accurately ripped
  8   | (6/6) Accurately ripped
  9   | (6/6) Accurately ripped
==== Log checksum 91666E4F6A7811FF12E6A3FB76E7DBC49040C55B883C8BDE2DB494E978901370 ====
 
Содержание индексной карты (.CUE)
REM GENRE Jazz
REM DATE 1956
REM DISCID 7B0F6509
REM COMMENT "ExactAudioCopy v1.3"
PERFORMER "Kenny Dorham"
TITLE "'Round About Midnight at the Cafe Bohemia CD1"
FILE "01 - Monaco.wav" WAVE
  TRACK 01 AUDIO
    TITLE "Monaco"
    PERFORMER "Kenny Dorham"
    PREGAP 00:00:32
    INDEX 01 00:00:00
  TRACK 02 AUDIO
    TITLE "'Round About Midnight"
    PERFORMER "Kenny Dorham"
    INDEX 00 06:43:35
FILE "02 - 'Round About Midnight.wav" WAVE
    INDEX 01 00:00:00
  TRACK 03 AUDIO
    TITLE "Mexico City"
    PERFORMER "Kenny Dorham"
    INDEX 00 07:45:50
FILE "03 - Mexico City.wav" WAVE
    INDEX 01 00:00:00
  TRACK 04 AUDIO
    TITLE "A Night in Tunisia"
    PERFORMER "Kenny Dorham"
    INDEX 00 06:01:33
FILE "04 - A Night in Tunisia.wav" WAVE
    INDEX 01 00:00:00
  TRACK 05 AUDIO
    TITLE "Autumn in New York"
    PERFORMER "Kenny Dorham"
    INDEX 00 09:36:63
FILE "05 - Autumn in New York.wav" WAVE
    INDEX 01 00:00:00
  TRACK 06 AUDIO
    TITLE "Hill's Edge"
    PERFORMER "Kenny Dorham"
    INDEX 00 04:39:18
FILE "06 - Hill's Edge.wav" WAVE
    INDEX 01 00:00:00
  TRACK 07 AUDIO
    TITLE "K.D.'s Blues"
    PERFORMER "Kenny Dorham"
    INDEX 00 08:19:40
FILE "07 - K.D.'s Blues.wav" WAVE
    INDEX 01 00:00:00
  TRACK 08 AUDIO
    TITLE "Who Cares?"
    PERFORMER "Kenny Dorham"
    INDEX 00 09:27:70
FILE "08 - Who Cares.wav" WAVE
    INDEX 01 00:00:00
  TRACK 09 AUDIO
    TITLE "Mexico City (alternate take)"
    PERFORMER "Kenny Dorham"
    INDEX 00 06:19:65
FILE "09 - Mexico City (alternate take).wav" WAVE
    INDEX 01 00:00:00
 
Отчет CUETools
[CUETools log; Date: 29.12.2018 2:33:11; Version: 2.1.6]
Pregap length 00:00:32.
[CTDB TOCID: xN3uhEJRAgQ.mAEoGt3N8stSjGE-] found.
Track | CTDB Status
  1   | (7/7) Accurately ripped
  2   | (7/7) Accurately ripped
  3   | (7/7) Accurately ripped
  4   | (7/7) Accurately ripped
  5   | (7/7) Accurately ripped
  6   | (7/7) Accurately ripped
  7   | (7/7) Accurately ripped
  8   | (7/7) Accurately ripped
  9   | (7/7) Accurately ripped
[AccurateRip ID: 001674ae-00a55fde-7b0f6509] found.
Track   [  CRC   |   V2   ] Status
 01     [42bce8ff|3378067d] (00+03/11) Accurately ripped
 02     [9e218d84|e164465f] (00+03/11) Accurately ripped
 03     [85e27c1b|db3b79db] (00+03/11) Accurately ripped
 04     [b8828260|47ce6ea5] (00+03/11) Accurately ripped
 05     [a8fe1146|5f92a1ce] (00+03/11) Accurately ripped
 06     [f1ecdf42|f726c708] (00+03/11) Accurately ripped
 07     [ced82ee4|a5bdc241] (00+03/11) Accurately ripped
 08     [c9d04e69|3a08e780] (00+03/11) Accurately ripped
 09     [970dc901|9ebcf72b] (00+03/11) Accurately ripped
Offsetted by -2060:
 01     [d225e3f6] (05/11) Accurately ripped
 02     [a6cc02f8] (05/11) Accurately ripped
 03     [35edb0f5] (05/11) Accurately ripped
 04     [a3fad3f4] (05/11) Accurately ripped
 05     [7d2ab680] (05/11) Accurately ripped
 06     [cb9902c3] (05/11) Accurately ripped
 07     [6cdf7d53] (05/11) Accurately ripped
 08     [704e8579] (05/11) Accurately ripped
 09     [ad6c45b1] (05/11) Accurately ripped
Track Peak [ CRC32  ] [W/O NULL] [  LOG   ]
 --  100,0 [119417E8] [B3D03867]
 01   93,4 [3C8B8EAF] [755B98E0]   CRC32
 02   74,8 [CA83E890] [5406B5DB]   CRC32
 03  100,0 [53F4E11E] [340E46D5]   CRC32
 04   89,5 [EE759E5F] [6C45A970]   CRC32
 05   75,4 [1A1BAEB4] [C3FFB7C4]   CRC32
 06  100,0 [722E22BC] [F428B6AB]   CRC32
 07  100,0 [59031A5E] [C378B943]   CRC32
 08  100,0 [89891B7A] [BEBADB1E]   CRC32
 09  100,0 [A138EB13] [6F9F3938]   CRC32
 
CD2 {56:44}

01. Royal Roost (Clarke-Dorham) - 8:40
02. My Heart Stood Still (Rodgers-Hart) - 7:50
03. The Prophet (Dorham) - 6:19
04. K.D.'s Blues (alternate take) (Dorham) - 9:49
05. Riffin' (Dorham) - 7:44
06. Who Cares? (alternate take) (Gershwin) - 4:58
07. Monaco (alternate take) (Dorham) - 5:48
08. N.Y. Theme (Dorham) - 5:36

 
Лог создания рипа
Exact Audio Copy V1.3 from 2. September 2016
EAC extraction logfile from 27. December 2018, 16:59
Kenny Dorham / 'Round About Midnight at the Cafe Bohemia, Volume II
Used drive  : PIONEER BD-RW   BDR-208D   Adapter: 1  ID: 0
Read mode               : Secure
Utilize accurate stream : Yes
Defeat audio cache      : Yes
Make use of C2 pointers : No
Read offset correction                      : 667
Overread into Lead-In and Lead-Out          : No
Fill up missing offset samples with silence : Yes
Delete leading and trailing silent blocks   : No
Null samples used in CRC calculations       : Yes
Used interface                              : Native Win32 interface for Win NT & 2000
Gap handling                                : Appended to previous track
Used output format              : User Defined Encoder
Selected bitrate                : 1024 kBit/s
Quality                         : High
Add ID3 tag                     : No
Command line compressor         : C:\Program Files (x86)\Exact Audio Copy\Flac\flac.exe
Additional command line options : -8 -e -V -T "ARTIST=%artist%" -T "TITLE=%title%" -T "ALBUM=%albumtitle%" -T "DATE=%year%" -T "TRACKNUMBER=%tracknr%" -T "GENRE=%genre%" -T "PERFORMER=%albuminterpret%" -T "COMPOSER=%composer%" %haslyrics%--tag-from-file=LYRICS="%lyricsfile%"%haslyrics% -T "ALBUMARTIST=%albumartist%" -T "DISCNUMBER=%cdnumber%" -T "TOTALDISCS=%totalcds%" -T "TOTALTRACKS=%numtracks%" -T "COMMENT=%comment%" %source% -o %dest%
TOC of the extracted CD
     Track |   Start  |  Length  | Start sector | End sector
    ---------------------------------------------------------
        1  |  0:00.33 |  8:39.67 |        33    |    39024
        2  |  8:40.25 |  7:49.63 |     39025    |    74262
        3  | 16:30.13 |  6:18.45 |     74263    |   102657
        4  | 22:48.58 |  9:49.17 |    102658    |   146849
        5  | 32:38.00 |  7:43.58 |    146850    |   181632
        6  | 40:21.58 |  4:57.72 |    181633    |   203979
        7  | 45:19.55 |  5:47.60 |    203980    |   230064
        8  | 51:07.40 |  5:35.60 |    230065    |   255249
Track  1
     Filename K:\Musique\The Complete 'Round About Midnight At The Cafe Bohemia\CD2\01 - Royal Roost.wav
     Pre-gap length  0:00:02.44
     Peak level 100.0 %
     Extraction speed 4.9 X
     Track quality 99.9 %
     Test CRC DE1049B0
     Copy CRC DE1049B0
     Accurately ripped (confidence 3)  [C30385F3]  (AR v2)
     Copy OK
Track  2
     Filename K:\Musique\The Complete 'Round About Midnight At The Cafe Bohemia\CD2\02 - My Heart Stood Still.wav
     Pre-gap length  0:00:00.09
     Peak level 87.0 %
     Extraction speed 6.1 X
     Track quality 100.0 %
     Test CRC 5E3F5202
     Copy CRC 5E3F5202
     Accurately ripped (confidence 3)  [E9139804]  (AR v2)
     Copy OK
Track  3
     Filename K:\Musique\The Complete 'Round About Midnight At The Cafe Bohemia\CD2\03 - The Prophet.wav
     Pre-gap length  0:00:00.10
     Peak level 95.0 %
     Extraction speed 6.7 X
     Track quality 100.0 %
     Test CRC 865576A2
     Copy CRC 865576A2
     Accurately ripped (confidence 3)  [24ADEFE1]  (AR v2)
     Copy OK
Track  4
     Filename K:\Musique\The Complete 'Round About Midnight At The Cafe Bohemia\CD2\04 - K.D.'s Blues (alternate take).wav
     Pre-gap length  0:00:00.80
     Peak level 100.0 %
     Extraction speed 7.6 X
     Track quality 100.0 %
     Test CRC D0327AED
     Copy CRC D0327AED
     Accurately ripped (confidence 3)  [B7801CD1]  (AR v2)
     Copy OK
Track  5
     Filename K:\Musique\The Complete 'Round About Midnight At The Cafe Bohemia\CD2\05 - Riffin'.wav
     Pre-gap length  0:00:00.22
     Peak level 100.0 %
     Extraction speed 7.6 X
     Track quality 99.9 %
     Test CRC B32E0D7B
     Copy CRC B32E0D7B
     Accurately ripped (confidence 3)  [3050D328]  (AR v2)
     Copy OK
Track  6
     Filename K:\Musique\The Complete 'Round About Midnight At The Cafe Bohemia\CD2\06 - Who Cares (alternate take).wav
     Pre-gap length  0:00:00.97
     Peak level 87.8 %
     Extraction speed 8.2 X
     Track quality 100.0 %
     Test CRC 8DA27066
     Copy CRC 8DA27066
     Accurately ripped (confidence 3)  [52E09C78]  (AR v2)
     Copy OK
Track  7
     Filename K:\Musique\The Complete 'Round About Midnight At The Cafe Bohemia\CD2\07 - Monaco (alternate take).wav
     Pre-gap length  0:00:00.06
     Peak level 99.3 %
     Extraction speed 8.5 X
     Track quality 100.0 %
     Test CRC 7ED965EB
     Copy CRC 7ED965EB
     Accurately ripped (confidence 3)  [11466A5E]  (AR v2)
     Copy OK
Track  8
     Filename K:\Musique\The Complete 'Round About Midnight At The Cafe Bohemia\CD2\08 - N.Y. Theme.wav
     Pre-gap length  0:00:00.06
     Peak level 100.0 %
     Extraction speed 8.8 X
     Track quality 100.0 %
     Test CRC B48F2F3E
     Copy CRC B48F2F3E
     Accurately ripped (confidence 3)  [93956C69]  (AR v2)
     Copy OK
All tracks accurately ripped
No errors occurred
End of status report
---- CUETools DB Plugin V2.1.6
[CTDB TOCID: vdnEkv.nLub7AsgM44J7gFtqvjk-] found
Submit result: vdnEkv.nLub7AsgM44J7gFtqvjk- has been uploaded
Track | CTDB Status
  1   | (1/1) Differs in 1 samples @06:44:50
  2   | (1/1) Accurately ripped
  3   | (1/1) Accurately ripped
  4   | (1/1) Accurately ripped
  5   | (1/1) Accurately ripped
  6   | (1/1) Accurately ripped
  7   | (1/1) Accurately ripped
  8   | (1/1) Accurately ripped
If you are sure that your rip contains errors, you can use CUETools to repair it.
==== Log checksum 3C1C79F079942F32B91367CEAD1B3742C9B6003601C3EB40AF70B5CD2C8ABBC6 ====
 
Содержание индексной карты (.CUE)
REM GENRE Jazz
REM DATE 1956
REM DISCID 630D4B08
REM COMMENT "ExactAudioCopy v1.3"
PERFORMER "Kenny Dorham"
TITLE "'Round About Midnight at the Cafe Bohemia CD2"
FILE "01 - Royal Roost.wav" WAVE
  TRACK 01 AUDIO
    TITLE "Royal Roost"
    PERFORMER "Kenny Dorham"
    PREGAP 00:00:33
    INDEX 01 00:00:00
  TRACK 02 AUDIO
    TITLE "My Heart Stood Still"
    PERFORMER "Kenny Dorham"
    INDEX 00 08:39:60
FILE "02 - My Heart Stood Still.wav" WAVE
    INDEX 01 00:00:00
  TRACK 03 AUDIO
    TITLE "The Prophet"
    PERFORMER "Kenny Dorham"
    INDEX 00 07:49:55
FILE "03 - The Prophet.wav" WAVE
    INDEX 01 00:00:00
  TRACK 04 AUDIO
    TITLE "K.D.'s Blues (alternate take)"
    PERFORMER "Kenny Dorham"
    INDEX 00 06:17:60
FILE "04 - K.D.'s Blues (alternate take).wav" WAVE
    INDEX 01 00:00:00
  TRACK 05 AUDIO
    TITLE "Riffin'"
    PERFORMER "Kenny Dorham"
    INDEX 00 09:49:00
FILE "05 - Riffin'.wav" WAVE
    INDEX 01 00:00:00
  TRACK 06 AUDIO
    TITLE "Who Cares? (alternate take)"
    PERFORMER "Kenny Dorham"
    INDEX 00 07:42:60
FILE "06 - Who Cares (alternate take).wav" WAVE
    INDEX 01 00:00:00
  TRACK 07 AUDIO
    TITLE "Monaco (alternate take)"
    PERFORMER "Kenny Dorham"
    INDEX 00 04:57:67
FILE "07 - Monaco (alternate take).wav" WAVE
    INDEX 01 00:00:00
  TRACK 08 AUDIO
    TITLE "N.Y. Theme"
    PERFORMER "Kenny Dorham"
    INDEX 00 05:47:55
FILE "08 - N.Y. Theme.wav" WAVE
    INDEX 01 00:00:00
 
Отчет CUETools
[CUETools log; Date: 29.12.2018 2:33:17; Version: 2.1.6]
Pregap length 00:00:33.
[CTDB TOCID: vdnEkv.nLub7AsgM44J7gFtqvjk-] found.
Track | CTDB Status
  1   | (1/2) Accurately ripped, or (1/2) differs in 1 samples @06:44:50
  2   | (2/2) Accurately ripped
  3   | (2/2) Accurately ripped
  4   | (2/2) Accurately ripped
  5   | (2/2) Accurately ripped
  6   | (2/2) Accurately ripped
  7   | (2/2) Accurately ripped
  8   | (2/2) Accurately ripped
[AccurateRip ID: 0012d35d-007b9d3e-630d4b08] found.
Track   [  CRC   |   V2   ] Status
 01     [27422775|c30385f3] (0+3/3) Accurately ripped
 02     [5c6da38a|e9139804] (0+3/3) Accurately ripped
 03     [d0d6910a|24adefe1] (0+3/3) Accurately ripped
 04     [c3eb5845|b7801cd1] (0+3/3) Accurately ripped
 05     [b65f0682|3050d328] (0+3/3) Accurately ripped
 06     [009ca2db|52e09c78] (0+3/3) Accurately ripped
 07     [90201991|11466a5e] (0+3/3) Accurately ripped
 08     [3f96d8e0|93956c69] (0+3/3) Accurately ripped
Track Peak [ CRC32  ] [W/O NULL] [  LOG   ]
 --  100,0 [12313417] [E3D808E4]
 01  100,0 [DE1049B0] [E1AA1EA2]   CRC32
 02   87,0 [5E3F5202] [8EEFA89C]   CRC32
 03   95,0 [865576A2] [7202BD16]   CRC32
 04  100,0 [D0327AED] [6AF3BC02]   CRC32
 05  100,0 [B32E0D7B] [5601F0F0]   CRC32
 06   87,8 [8DA27066] [6821376D]   CRC32
 07   99,3 [7ED965EB] [72A5579F]   CRC32
 08  100,0 [B48F2F3E] [707C52C7]   CRC32
Приватный:
Нет (DHT включён)
Размер:
686.85 Мб (720,216,174 байт) » файлов: 29
Участники:
0 раздают, 0 качают (0 участников всего)
Внешние участники:
--- [ Обновить ]
12:40
31
Нет комментариев. Ваш будет первым!