Вы используете незарегистрированную версию компонента "Вкладки"!

Поиск

1956 Gene Krupa Big Band - Drummer Man (1990) {Verve 827 843-2} [CD]

1956 Gene Krupa Big Band - Drummer Man (1990) {Verve 827 843-2} [CD]
Битрейт аудио:
lossless
Лог создания рипа
X Lossless Decoder version 20181019 (151.1)

XLD extraction logfile from 2018-12-23 21:51:01 -0800

Gene Krupa Big Band / Drummer Man

Used drive : PIONEER BD-RW   BDR-XD05 (revision 3.10)
Media type : Pressed CD

Ripper mode             : XLD Secure Ripper
Disable audio cache     : OK for the drive with a cache less than 1375KiB
Make use of C2 pointers : NO
Read offset correction  : 667
Max retry count         : 100
Gap status              : Analyzed, Appended (except HTOA)

TOC of the extracted CD
     Track |   Start  |  Length  | Start sector | End sector
    ---------------------------------------------------------
        1  | 00:00:33 | 03:24:00 |        33    |    15332
        2  | 03:24:33 | 03:18:62 |     15333    |    30244
        3  | 06:43:20 | 03:35:50 |     30245    |    46419
        4  | 10:18:70 | 03:07:25 |     46420    |    60469
        5  | 13:26:20 | 03:15:43 |     60470    |    75137
        6  | 16:41:63 | 03:37:65 |     75138    |    91477
        7  | 20:19:53 | 03:53:57 |     91478    |   109009
        8  | 24:13:35 | 02:39:05 |    109010    |   120939
        9  | 26:52:40 | 03:35:60 |    120940    |   137124
       10  | 30:28:25 | 02:19:33 |    137125    |   147582
       11  | 32:47:58 | 04:00:50 |    147583    |   165632
       12  | 36:48:33 | 02:48:67 |    165633    |   178299

List of alternate offset correction values
        #  | Absolute | Relative | Confidence
    ------------------------------------------
        1  |   -481   |  -1148   |     13
        2  |    716   |     49   |      2

AccurateRip Summary (DiscID: 0011f86c-00a741b9-7a09490c)
    Track 01 : OK (v1+v2, confidence 12/27)
    Track 02 : OK (v1+v2, confidence 12/27)
    Track 03 : OK (v1+v2, confidence 12/25)
    Track 04 : OK (v1+v2, confidence 12/25)
    Track 05 : OK (v1+v2, confidence 12/25)
    Track 06 : OK (v1+v2, confidence 12/25)
    Track 07 : OK (v1+v2, confidence 12/27)
    Track 08 : OK (v1+v2, confidence 12/27)
    Track 09 : OK (v1+v2, confidence 12/27)
    Track 10 : OK (v1+v2, confidence 12/27)
    Track 11 : OK (v1+v2, confidence 12/27)
    Track 12 : OK (v1+v2, confidence 12/27)
        ->All tracks accurately ripped.

All Tracks
    Album gain               : -3.02 dB
    Peak                     : 0.958160
    Statistics
        Read error                           : 0
        Jitter error (maybe fixed)           : 0
        Retry sector count                   : 0
        Damaged sector count                 : 0

Track 01
    Filename : /Volumes/Hollywood and Vine/Rips/Gene Krupa Big Band - Drummer Man (1956) [FLAC]/01 Let Me Off Uptown.flac
    Pre-gap length : 00:02:33

    Track gain               : -4.43 dB
    Peak                     : 0.873932
    CRC32 hash (test run)    : 4C022C8A
    CRC32 hash               : 4C022C8A
    CRC32 hash (skip zero)   : 654266F4
    AccurateRip v1 signature : 86426B3A
    AccurateRip v2 signature : 0F7C99F6
        ->Accurately ripped (v1+v2, confidence 6+6/27)
    Statistics
        Read error                           : 0
        Jitter error (maybe fixed)           : 0
        Retry sector count                   : 0
        Damaged sector count                 : 0

Track 02
    Filename : /Volumes/Hollywood and Vine/Rips/Gene Krupa Big Band - Drummer Man (1956) [FLAC]/02 Rockin' Chair.flac
    Pre-gap length : 00:01:58

    Track gain               : -2.66 dB
    Peak                     : 0.790283
    CRC32 hash (test run)    : 9DBFD9B1
    CRC32 hash               : 9DBFD9B1
    CRC32 hash (skip zero)   : 7292391A
    AccurateRip v1 signature : 741BCFC3
    AccurateRip v2 signature : F5577919
        ->Accurately ripped (v1+v2, confidence 6+6/27)
    Statistics
        Read error                           : 0
        Jitter error (maybe fixed)           : 0
        Retry sector count                   : 0
        Damaged sector count                 : 0

Track 03
    Filename : /Volumes/Hollywood and Vine/Rips/Gene Krupa Big Band - Drummer Man (1956) [FLAC]/03 Opus 1.flac
    Pre-gap length : 00:01:42

    Track gain               : -3.30 dB
    Peak                     : 0.928223
    CRC32 hash (test run)    : 640167D9
    CRC32 hash               : 640167D9
    CRC32 hash (skip zero)   : B9DDE1BE
    AccurateRip v1 signature : 3C5F7AAE
    AccurateRip v2 signature : 20A28973
        ->Accurately ripped (v1+v2, confidence 6+6/25)
    Statistics
        Read error                           : 0
        Jitter error (maybe fixed)           : 0
        Retry sector count                   : 0
        Damaged sector count                 : 0

Track 04
    Filename : /Volumes/Hollywood and Vine/Rips/Gene Krupa Big Band - Drummer Man (1956) [FLAC]/04 Fish Fry.flac
    Pre-gap length : 00:02:49

    Track gain               : -3.50 dB
    Peak                     : 0.832642
    CRC32 hash (test run)    : B144873F
    CRC32 hash               : B144873F
    CRC32 hash (skip zero)   : B254D451
    AccurateRip v1 signature : 3A1283E1
    AccurateRip v2 signature : 743E8665
        ->Accurately ripped (v1+v2, confidence 6+6/25)
    Statistics
        Read error                           : 0
        Jitter error (maybe fixed)           : 0
        Retry sector count                   : 0
        Damaged sector count                 : 0

Track 05
    Filename : /Volumes/Hollywood and Vine/Rips/Gene Krupa Big Band - Drummer Man (1956) [FLAC]/05 Drummin' Man.flac
    Pre-gap length : 00:01:37

    Track gain               : -3.34 dB
    Peak                     : 0.912750
    CRC32 hash (test run)    : C752C5AD
    CRC32 hash               : C752C5AD
    CRC32 hash (skip zero)   : 6E8ABE49
    AccurateRip v1 signature : E8D7F7BE
    AccurateRip v2 signature : 2DB7D390
        ->Accurately ripped (v1+v2, confidence 6+6/25)
    Statistics
        Read error                           : 0
        Jitter error (maybe fixed)           : 0
        Retry sector count                   : 0
        Damaged sector count                 : 0

Track 06
    Filename : /Volumes/Hollywood and Vine/Rips/Gene Krupa Big Band - Drummer Man (1956) [FLAC]/06 Drum Boogie.flac
    Pre-gap length : 00:01:65

    Track gain               : -2.80 dB
    Peak                     : 0.798737
    CRC32 hash (test run)    : 20FE7673
    CRC32 hash               : 20FE7673
    CRC32 hash (skip zero)   : 3670BE31
    AccurateRip v1 signature : 3A591CCB
    AccurateRip v2 signature : 8636D349
        ->Accurately ripped (v1+v2, confidence 6+6/25)
    Statistics
        Read error                           : 0
        Jitter error (maybe fixed)           : 0
        Retry sector count                   : 0
        Damaged sector count                 : 0

Track 07
    Filename : /Volumes/Hollywood and Vine/Rips/Gene Krupa Big Band - Drummer Man (1956) [FLAC]/07 Boogie Blues.flac
    Pre-gap length : 00:02:28

    Track gain               : -3.13 dB
    Peak                     : 0.870575
    CRC32 hash (test run)    : 84C9B77C
    CRC32 hash               : 84C9B77C
    CRC32 hash (skip zero)   : AF1AE71F
    AccurateRip v1 signature : D2359A39
    AccurateRip v2 signature : 6E0AC5AA
        ->Accurately ripped (v1+v2, confidence 6+6/27)
    Statistics
        Read error                           : 0
        Jitter error (maybe fixed)           : 0
        Retry sector count                   : 0
        Damaged sector count                 : 0

Track 08
    Filename : /Volumes/Hollywood and Vine/Rips/Gene Krupa Big Band - Drummer Man (1956) [FLAC]/08 Leave Us Leap.flac
    Pre-gap length : 00:02:25

    Track gain               : -3.76 dB
    Peak                     : 0.861786
    CRC32 hash (test run)    : BA4A0231
    CRC32 hash               : BA4A0231
    CRC32 hash (skip zero)   : 26A0758B
    AccurateRip v1 signature : 7D063064
    AccurateRip v2 signature : 04B0B13E
        ->Accurately ripped (v1+v2, confidence 6+6/27)
    Statistics
        Read error                           : 0
        Jitter error (maybe fixed)           : 0
        Retry sector count                   : 0
        Damaged sector count                 : 0

Track 09
    Filename : /Volumes/Hollywood and Vine/Rips/Gene Krupa Big Band - Drummer Man (1956) [FLAC]/09 Slow Down.flac
    Pre-gap length : 00:02:02

    Track gain               : -3.06 dB
    Peak                     : 0.876587
    CRC32 hash (test run)    : AE332050
    CRC32 hash               : AE332050
    CRC32 hash (skip zero)   : 812B8DED
    AccurateRip v1 signature : 3B589BF7
    AccurateRip v2 signature : 6882A15D
        ->Accurately ripped (v1+v2, confidence 6+6/27)
    Statistics
        Read error                           : 0
        Jitter error (maybe fixed)           : 0
        Retry sector count                   : 0
        Damaged sector count                 : 0

Track 10
    Filename : /Volumes/Hollywood and Vine/Rips/Gene Krupa Big Band - Drummer Man (1956) [FLAC]/10 Wire Brush Stomp.flac
    Pre-gap length : 00:02:17

    Track gain               : -1.49 dB
    Peak                     : 0.936310
    CRC32 hash (test run)    : C2E7FEA5
    CRC32 hash               : C2E7FEA5
    CRC32 hash (skip zero)   : F77B5F3C
    AccurateRip v1 signature : 148D3324
    AccurateRip v2 signature : 1DCC4B94
        ->Accurately ripped (v1+v2, confidence 6+6/27)
    Statistics
        Read error                           : 0
        Jitter error (maybe fixed)           : 0
        Retry sector count                   : 0
        Damaged sector count                 : 0

Track 11
    Filename : /Volumes/Hollywood and Vine/Rips/Gene Krupa Big Band - Drummer Man (1956) [FLAC]/11 That's What You Think.flac
    Pre-gap length : 00:02:62

    Track gain               : 0.50 dB
    Peak                     : 0.792114
    CRC32 hash (test run)    : A64BD8FB
    CRC32 hash               : A64BD8FB
    CRC32 hash (skip zero)   : 289DF08A
    AccurateRip v1 signature : 26B9B569
    AccurateRip v2 signature : 4A70C7A5
        ->Accurately ripped (v1+v2, confidence 6+6/27)
    Statistics
        Read error                           : 0
        Jitter error (maybe fixed)           : 0
        Retry sector count                   : 0
        Damaged sector count                 : 0

Track 12
    Filename : /Volumes/Hollywood and Vine/Rips/Gene Krupa Big Band - Drummer Man (1956) [FLAC]/12 After You've Gone.flac
    Pre-gap length : 00:01:43

    Track gain               : -3.10 dB
    Peak                     : 0.958160
    CRC32 hash (test run)    : CA819C24
    CRC32 hash               : CA819C24
    CRC32 hash (skip zero)   : C0C8B2AF
    AccurateRip v1 signature : 1D176E32
    AccurateRip v2 signature : 685161D0
        ->Accurately ripped (v1+v2, confidence 6+6/27)
    Statistics
        Read error                           : 0
        Jitter error (maybe fixed)           : 0
        Retry sector count                   : 0
        Damaged sector count                 : 0

No errors occurred

End of status report

-----BEGIN XLD SIGNATURE-----
6Thyn4GtARvh6gwP5FB.ns2S1uNRxnE_Omiwdtg6e7IfcA5FOXhI81humngurA5lbE7bwEN5.8.K9J6oMYWF.s01RPZzSNSmyy.edkm
-----END XLD SIGNATURE-----
Содержание индексной карты (.CUE)
TITLE "Drummer Man"
PERFORMER "Gene Krupa"
CATALOG 0042282784322
REM GENRE "Jazz"
REM DATE "1956"
REM DISCID 7A09490C
REM REPLAYGAIN_ALBUM_GAIN -3.02 dB
REM REPLAYGAIN_ALBUM_PEAK 0.958160
FILE "01 - Let Me Off Uptown.flac" WAVE
  TRACK 01 AUDIO
    TITLE "Let Me Off Uptown"
    ISRC USF095600830
    REM REPLAYGAIN_TRACK_GAIN -4.43 dB
    REM REPLAYGAIN_TRACK_PEAK 0.873932
    PREGAP 00:00:33
    INDEX 01 00:00:00
  TRACK 02 AUDIO
    TITLE "Rockin' Chair"
    ISRC USF095600840
    REM REPLAYGAIN_TRACK_GAIN -2.66 dB
    REM REPLAYGAIN_TRACK_PEAK 0.790283
    INDEX 00 03:22:17
FILE "02 - Rockin' Chair.flac" WAVE
    INDEX 01 00:00:00
  TRACK 03 AUDIO
    TITLE "Opus 1"
    ISRC USF095600850
    REM REPLAYGAIN_TRACK_GAIN -3.30 dB
    REM REPLAYGAIN_TRACK_PEAK 0.928223
    INDEX 00 03:17:20
FILE "03 - Opus 1.flac" WAVE
    INDEX 01 00:00:00
  TRACK 04 AUDIO
    TITLE "Fish Fry"
    ISRC USF095600860
    REM REPLAYGAIN_TRACK_GAIN -3.50 dB
    REM REPLAYGAIN_TRACK_PEAK 0.832642
    INDEX 00 03:33:01
FILE "04 - Fish Fry.flac" WAVE
    INDEX 01 00:00:00
  TRACK 05 AUDIO
    TITLE "Drummin' Man"
    ISRC USF095600870
    REM REPLAYGAIN_TRACK_GAIN -3.34 dB
    REM REPLAYGAIN_TRACK_PEAK 0.912750
    INDEX 00 03:05:63
FILE "05 - Drummin' Man.flac" WAVE
    INDEX 01 00:00:00
  TRACK 06 AUDIO
    TITLE "Drum Boogie"
    ISRC USF095600880
    REM REPLAYGAIN_TRACK_GAIN -2.80 dB
    REM REPLAYGAIN_TRACK_PEAK 0.798737
    INDEX 00 03:13:53
FILE "06 - Drum Boogie.flac" WAVE
    INDEX 01 00:00:00
  TRACK 07 AUDIO
    TITLE "Boogie Blues"
    ISRC USF095600890
    REM REPLAYGAIN_TRACK_GAIN -3.13 dB
    REM REPLAYGAIN_TRACK_PEAK 0.870575
    INDEX 00 03:35:37
FILE "07 - Boogie Blues.flac" WAVE
    INDEX 01 00:00:00
  TRACK 08 AUDIO
    TITLE "Leave Us Leap"
    ISRC USF095600900
    REM REPLAYGAIN_TRACK_GAIN -3.76 dB
    REM REPLAYGAIN_TRACK_PEAK 0.861786
    INDEX 00 03:51:32
FILE "08 - Leave Us Leap.flac" WAVE
    INDEX 01 00:00:00
  TRACK 09 AUDIO
    TITLE "Slow Down"
    ISRC USF095600910
    REM REPLAYGAIN_TRACK_GAIN -3.06 dB
    REM REPLAYGAIN_TRACK_PEAK 0.876587
    INDEX 00 02:37:03
FILE "09 - Slow Down.flac" WAVE
    INDEX 01 00:00:00
  TRACK 10 AUDIO
    TITLE "Wire Brush Stomp"
    ISRC USF095600920
    REM REPLAYGAIN_TRACK_GAIN -1.49 dB
    REM REPLAYGAIN_TRACK_PEAK 0.936310
    INDEX 00 03:33:43
FILE "10 - Wire Brush Stomp.flac" WAVE
    INDEX 01 00:00:00
  TRACK 11 AUDIO
    TITLE "That's What You Think"
    ISRC USF095600930
    REM REPLAYGAIN_TRACK_GAIN 0.50 dB
    REM REPLAYGAIN_TRACK_PEAK 0.792114
    INDEX 00 02:16:46
FILE "11 - That's What You Think.flac" WAVE
    INDEX 01 00:00:00
  TRACK 12 AUDIO
    TITLE "After You've Gone"
    ISRC USF095600940
    REM REPLAYGAIN_TRACK_GAIN -3.10 dB
    REM REPLAYGAIN_TRACK_PEAK 0.958160
    INDEX 00 03:59:07
FILE "12 - After You've Gone.flac" WAVE
    INDEX 01 00:00:00
Лог проверки качества
[CUETools log; Date: 24.12.2018 15:26:17; Version: 2.1.6]
Pregap length 00:00:33.
[CTDB TOCID: dppgx7haM2TzRJRZmoheU6ugw78-] found.
Track | CTDB Status
  1   | (13/13) Accurately ripped
  2   | (13/13) Accurately ripped
  3   | (13/13) Accurately ripped
  4   | (13/13) Accurately ripped
  5   | (13/13) Accurately ripped
  6   | (13/13) Accurately ripped
  7   | (13/13) Accurately ripped
  8   | (12/13) Accurately ripped
  9   | (13/13) Accurately ripped
 10   | (13/13) Accurately ripped
 11   | (13/13) Accurately ripped
 12   | (13/13) Accurately ripped
[AccurateRip ID: 0011f86c-00a741b9-7a09490c] found.
Track   [  CRC   |   V2   ] Status
 01     [86426b3a|0f7c99f6] (06+06/27) Accurately ripped
 02     [741bcfc3|f5577919] (06+06/27) Accurately ripped
 03     [3c5f7aae|20a28973] (06+06/25) Accurately ripped
 04     [3a1283e1|743e8665] (06+06/25) Accurately ripped
 05     [e8d7f7be|2db7d390] (06+06/25) Accurately ripped
 06     [3a591ccb|8636d349] (06+06/25) Accurately ripped
 07     [d2359a39|6e0ac5aa] (06+06/27) Accurately ripped
 08     [7d063064|04b0b13e] (06+06/27) Accurately ripped
 09     [3b589bf7|6882a15d] (06+06/27) Accurately ripped
 10     [148d3324|1dcc4b94] (06+06/27) Accurately ripped
 11     [26b9b569|4a70c7a5] (06+06/27) Accurately ripped
 12     [1d176e32|685161d0] (06+06/27) Accurately ripped
Offsetted by -1148:
 01     [bd91bade] (02/27) Accurately ripped
 02     [75fedceb] (02/27) Accurately ripped
 03     [9e878f4e] (00/25) No match (V2 was not tested)
 04     [b91502a9] (00/25) No match (V2 was not tested)
 05     [0aa39f0a] (00/25) No match (V2 was not tested)
 06     [3758d00b] (00/25) No match (V2 was not tested)
 07     [64a9566d] (02/27) Accurately ripped
 08     [b6d95ffc] (02/27) Accurately ripped
 09     [6241a3e3] (02/27) Accurately ripped
 10     [7f8cd63c] (02/27) Accurately ripped
 11     [ec971bb9] (02/27) Accurately ripped
 12     [9226330e] (02/27) Accurately ripped
Offsetted by 49:
 01     [8575aaf3] (00/27) No match (V2 was not tested)
 02     [de2ca82d] (00/27) No match (V2 was not tested)
 03     [b69f5456] (00/25) No match (V2 was not tested)
 04     [8f301133] (00/25) No match (V2 was not tested)
 05     [e5d71481] (00/25) No match (V2 was not tested)
 06     [262efa9b] (00/25) No match (V2 was not tested)
 07     [8a65bc56] (00/27) No match (V2 was not tested)
 08     [5517b62a] (00/27) No match (V2 was not tested)
 09     [781fd562] (00/27) No match (V2 was not tested)
 10     [d63a7bca] (00/27) No match (V2 was not tested)
 11     [6c54293d] (00/27) No match (V2 was not tested)
 12     [aad3ad99] (00/27) No match (V2 was not tested)

Track Peak [ CRC32  ] [W/O NULL]
 --   95,8 [F1FDE079] [7E7369E3]
 01   87,3 [4C022C8A] [654266F4]
 02   79,0 [9DBFD9B1] [7292391A]
 03   92,8 [640167D9] [B9DDE1BE]
 04   83,2 [B144873F] [B254D451]
 05   91,2 [C752C5AD] [6E8ABE49]
 06   79,8 [20FE7673] [3670BE31]
 07   87,0 [84C9B77C] [AF1AE71F]
 08   86,1 [BA4A0231] [26A0758B]
 09   87,6 [AE332050] [812B8DED]
 10   93,6 [C2E7FEA5] [F77B5F3C]
 11   79,2 [A64BD8FB] [289DF08A]
 12   95,8 [CA819C24] [C0C8B2AF]
Any questions - support@pro-jazz.com. Есть вопросы - support@pro-jazz.com
12:44
280
Нет комментариев. Ваш будет первым!