Поиск

1956-1962 Ahmad Jamal Trio - Complete Argo Sessions Vol.5 (2018) {Crazy Warthog} [24-44,1]

1956-1962 Ahmad Jamal Trio - Complete Argo Sessions Vol.5 (2018) {Crazy Warthog} [24-44,1]
Издатель (лейбл):
Битрейт аудио:
lossless
Доп. инфо:

Формат записи/Источник записи: [TR24][OF]
Издание: Remastered
Год издания/переиздания диска: 2018
Издатель (лейбл): Crazy Warthog Media
Продолжительность: 01:01:13
Наличие сканов в содержимом раздачи: Нет

Контейнер: FLAC (*.flac)
Тип рипа: tracks
Разрядность: 24/44,1
Количество каналов: 2.0

Источник (релизер): Qobuz

Лог проверки качества
foobar2000 1.3.7 / Dynamic Range Meter 1.1.1
log date: 2019-07-02 05:03:50

--------------------------------------------------------------------------------
Analyzed: Ahmad Jamal / Complete Ahmad Jamal Trio Argo Sessions Vol.5 1956-1962
--------------------------------------------------------------------------------

DR         Peak         RMS     Duration Track
--------------------------------------------------------------------------------
DR14      -1.89 dB   -18.69 dB      2:09 01-Comme Ci, Comme Ca
DR12      -0.68 dB   -16.73 dB      3:56 02-Ivy
DR15      -0.22 dB   -19.28 dB      3:07 03-Never Never Land
DR13      -0.44 dB   -17.05 dB      2:41 04-Tangerine
DR15      -0.08 dB   -19.13 dB      4:19 05-Ahmad's Blues
DR17      -0.07 dB   -20.29 dB      3:00 06-Seleritus
DR11      -0.95 dB   -15.84 dB      1:40 07-I Like to Recognize the Tune
DR14      -1.38 dB   -18.64 dB      3:09 08-I'm Alone with You
DR14      -1.05 dB   -21.51 dB      4:10 09-Sophisticated Gentlemen
DR15       0.00 dB   -16.93 dB      4:42 10-Ahmad's Waltz
DR12       0.00 dB   -14.16 dB      2:20 11-Valentina
DR14       0.00 dB   -19.20 dB      2:55 12-Yesterdays
DR12       0.00 dB   -13.24 dB      3:25 13-Tempo for Two
DR11       0.00 dB   -12.61 dB      2:06 14-Hallelujah
DR12       0.00 dB   -13.77 dB      2:50 15-It's a Wonderful World
DR10       0.00 dB   -12.02 dB      3:59 16-Baia
DR12       0.00 dB   -12.76 dB      3:37 17-You Came a Long Way from St. Louis
DR17      -0.01 dB   -20.30 dB      4:04 18-Lover Man
DR12       0.00 dB   -14.37 dB      3:13 19-Who Cares
--------------------------------------------------------------------------------

Number of tracks:  19
Official DR value: DR13

Samplerate:        44100 Hz
Channels:          2
Bits per sample:   24
Bitrate:           1556 kbps
Codec:             FLAC
================================================================================
No seeders - write personal message to M0p94ok. Any questions - support@pro-jazz.com.
Нет сидеров - пишите в личку M0p94ok. Есть вопросы - support@pro-jazz.com
20:54
254
Нет комментариев. Ваш будет первым!