Вы используете незарегистрированную версию компонента "Вкладки"!

Поиск

1955 Urbie Green - Urbie: East Coast Jazz Series No. 6 (2014) {CDSOL-6128} [CD]

1955 Urbie Green - Urbie: East Coast Jazz Series No. 6 (2014) {CDSOL-6128} [CD]
Стили:
Издатель (лейбл):
Номер по каталогу:
CDSOL-6128
Доп. инфо:

Носитель: CD
Страна-производитель диска (релиза): Japan
Год издания: 2014
Аудиокодек: FLAC (*.flac)
Тип рипа: tracks+.cue
Битрейт аудио: lossless
Продолжительность: 34:36
Rip by ruskaval
Наличие сканов в содержимом раздачи: да

Лог создания рипа
Exact Audio Copy V1.0 beta 3 from 29. August 2011
EAC extraction logfile from 4. December 2014, 19:20
Urbie Green / Urbie:East Coast Jazz Series No.6
Used drive  : ATAPI   iHAS124   B   Adapter: 2  ID: 1
Read mode               : Secure
Utilize accurate stream : Yes
Defeat audio cache      : Yes
Make use of C2 pointers : No
Read offset correction                      : 6
Overread into Lead-In and Lead-Out          : No
Fill up missing offset samples with silence : Yes
Delete leading and trailing silent blocks   : No
Null samples used in CRC calculations       : Yes
Used interface                              : Native Win32 interface for Win NT & 2000
Gap handling                                : Appended to previous track
Used output format              : User Defined Encoder
Selected bitrate                : 1024 kBit/s
Quality                         : High
Add ID3 tag                     : No
Command line compressor         : C:\Program Files (x86)\FLAC Frontend\tools\flac.exe
Additional command line options : -8 -V -T "ARTIST=%artist%" -T "TITLE=%title%" -T "ALBUM=%albumtitle%" -T "DATE=%year%" -T "TRACKNUMBER=%tracknr%" -T "TOTALTRACKS=%numtracks%" -T "GENRE=%genre%" -T "ALBUMARTIST=%albumartist%" -T "ALBUM ARTIST=%albumartist%" -T "COMMENT=EAC Secure Mode, Test & Copy, AccurateRip, FLAC -8" %source%
TOC of the extracted CD
     Track |   Start  |  Length  | Start sector | End sector
    ---------------------------------------------------------
        1  |  0:00.00 |  3:12.32 |         0    |    14431
        2  |  3:12.32 |  3:34.66 |     14432    |    30547
        3  |  6:47.23 |  4:20.64 |     30548    |    50111
        4  | 11:08.12 |  2:49.04 |     50112    |    62790
        5  | 13:57.16 |  3:26.59 |     62791    |    78299
        6  | 17:24.00 |  4:02.56 |     78300    |    96505
        7  | 21:26.56 |  3:55.68 |     96506    |   114198
        8  | 25:22.49 |  2:20.36 |    114199    |   124734
        9  | 27:43.10 |  3:58.23 |    124735    |   142607
       10  | 31:41.33 |  2:54.18 |    142608    |   155675
Track  1
     Filename C:\Urbie Green - Urbie-East Coast Jazz Series No.6 (1955) {2014 Japanese Bethlehem Album Collection 1000}\01 - Mutation.wav
     Pre-gap length  0:00:02.00
     Peak level 98.2 %
     Extraction speed 1.7 X
     Track quality 100.0 %
     Test CRC D6AC5481
     Copy CRC D6AC5481
     Track not present in AccurateRip database
     Copy OK
Track  2
     Filename C:\Urbie Green - Urbie-East Coast Jazz Series No.6 (1955) {2014 Japanese Bethlehem Album Collection 1000}\02 - On Green Dolphin Street.wav
     Peak level 98.2 %
     Extraction speed 1.9 X
     Track quality 100.0 %
     Test CRC 65F853DE
     Copy CRC 65F853DE
     Track not present in AccurateRip database
     Copy OK
Track  3
     Filename C:\Urbie Green - Urbie-East Coast Jazz Series No.6 (1955) {2014 Japanese Bethlehem Album Collection 1000}\03 - Just One Of Those Things.wav
     Peak level 98.2 %
     Extraction speed 2.2 X
     Track quality 100.0 %
     Test CRC E9C04ADC
     Copy CRC E9C04ADC
     Track not present in AccurateRip database
     Copy OK
Track  4
     Filename C:\Urbie Green - Urbie-East Coast Jazz Series No.6 (1955) {2014 Japanese Bethlehem Album Collection 1000}\04 - How About You.wav
     Peak level 98.2 %
     Extraction speed 2.2 X
     Track quality 100.0 %
     Test CRC 7C20459B
     Copy CRC 7C20459B
     Track not present in AccurateRip database
     Copy OK
Track  5
     Filename C:\Urbie Green - Urbie-East Coast Jazz Series No.6 (1955) {2014 Japanese Bethlehem Album Collection 1000}\05 - When Your Lover Has Gone.wav
     Peak level 98.2 %
     Extraction speed 1.7 X
     Track quality 99.9 %
     Test CRC 0C15FC71
     Copy CRC 0C15FC71
     Track not present in AccurateRip database
     Copy OK
Track  6
     Filename C:\Urbie Green - Urbie-East Coast Jazz Series No.6 (1955) {2014 Japanese Bethlehem Album Collection 1000}\06 - Three Little Words.wav
     Peak level 98.3 %
     Extraction speed 2.6 X
     Track quality 100.0 %
     Test CRC 99AE5F1F
     Copy CRC 99AE5F1F
     Track not present in AccurateRip database
     Copy OK
Track  7
     Filename C:\Urbie Green - Urbie-East Coast Jazz Series No.6 (1955) {2014 Japanese Bethlehem Album Collection 1000}\07 - Sneaky Pete.wav
     Peak level 98.2 %
     Extraction speed 2.7 X
     Track quality 100.0 %
     Test CRC 70A1A773
     Copy CRC 70A1A773
     Track not present in AccurateRip database
     Copy OK
Track  8
     Filename C:\Urbie Green - Urbie-East Coast Jazz Series No.6 (1955) {2014 Japanese Bethlehem Album Collection 1000}\08 - Melody In Bb.wav
     Peak level 98.2 %
     Extraction speed 2.6 X
     Track quality 100.0 %
     Test CRC 167C7ECC
     Copy CRC 167C7ECC
     Track not present in AccurateRip database
     Copy OK
Track  9
     Filename C:\Urbie Green - Urbie-East Coast Jazz Series No.6 (1955) {2014 Japanese Bethlehem Album Collection 1000}\09 - Sassafras.wav
     Peak level 98.3 %
     Extraction speed 2.9 X
     Track quality 100.0 %
     Test CRC 7A068B9B
     Copy CRC 7A068B9B
     Track not present in AccurateRip database
     Copy OK
Track 10
     Filename C:\Urbie Green - Urbie-East Coast Jazz Series No.6 (1955) {2014 Japanese Bethlehem Album Collection 1000}\10 - Love Locked Out.wav
     Peak level 98.2 %
     Extraction speed 2.9 X
     Track quality 100.0 %
     Test CRC 142D88AE
     Copy CRC 142D88AE
     Track not present in AccurateRip database
     Copy OK
None of the tracks are present in the AccurateRip database
No errors occurred
End of status report
==== Log checksum B1D652108620131297AF2FD5F081DC1F94895C8B33A27C63914C8D048AC46EE4 ====
Содержание индексной карты (.CUE)
REM GENRE Jazz
REM DATE 1955
REM DISCID 87081B0A
REM COMMENT "ExactAudioCopy v1.0b3"
PERFORMER "Urbie Green"
TITLE "Urbie: East Coast Jazz Series No. 6"
FILE "01 - Mutation.wav" WAVE
  TRACK 01 AUDIO
    TITLE "Mutation"
    PERFORMER "Urbie Green"
    INDEX 01 00:00:00
FILE "02 - On Green Dolphin Street.wav" WAVE
  TRACK 02 AUDIO
    TITLE "On Green Dolphin Street"
    PERFORMER "Urbie Green"
    INDEX 01 00:00:00
FILE "03 - Just One Of Those Things.wav" WAVE
  TRACK 03 AUDIO
    TITLE "Just One Of Those Things"
    PERFORMER "Urbie Green"
    INDEX 01 00:00:00
FILE "04 - How About You.wav" WAVE
  TRACK 04 AUDIO
    TITLE "How About You?"
    PERFORMER "Urbie Green"
    INDEX 01 00:00:00
FILE "05 - When Your Lover Has Gone.wav" WAVE
  TRACK 05 AUDIO
    TITLE "When Your Lover Has Gone"
    PERFORMER "Urbie Green"
    INDEX 01 00:00:00
FILE "06 - Three Little Words.wav" WAVE
  TRACK 06 AUDIO
    TITLE "Three Little Words"
    PERFORMER "Urbie Green"
    INDEX 01 00:00:00
FILE "07 - Sneaky Pete.wav" WAVE
  TRACK 07 AUDIO
    TITLE "Sneaky Pete"
    PERFORMER "Urbie Green"
    INDEX 01 00:00:00
FILE "08 - Melody In Bb.wav" WAVE
  TRACK 08 AUDIO
    TITLE "Melody In Bb"
    PERFORMER "Urbie Green"
    INDEX 01 00:00:00
FILE "09 - Sassafras.wav" WAVE
  TRACK 09 AUDIO
    TITLE "Sassafras"
    PERFORMER "Urbie Green"
    INDEX 01 00:00:00
FILE "10 - Love Locked Out.wav" WAVE
  TRACK 10 AUDIO
    TITLE "Love Locked Out"
    PERFORMER "Urbie Green"
    INDEX 01 00:00:00
Any questions - support@pro-jazz.com. Есть вопросы - support@pro-jazz.com
14:15
218
Нет комментариев. Ваш будет первым!