Поиск

1955 Nat King Cole - Penthouse Serenade (2021) {Capitol} [24-96]

1955 Nat King Cole - Penthouse Serenade (2021) {Capitol} [24-96]
Стили:
Дата записи диска:
2 января 1952 - 14 июля 1955
Место записи:
Capitol studios, Los Angeles, CA; MGM Studios, New York, NY
Издатель (лейбл):
Носитель:
WEB
Формат:
PCM
Тип рипа:
tracks
Контейнер:
FLAC (*.flac)
Количество каналов:
2.0
Разрядность/ЧД:
24/96
Битрейт аудио:
lossless
Время звучания:
00:33:57
Наличие сканов:
только обложка

01 - Penthouse Serenade (When We're Alone) 03:08
02 - Somebody Loves Me 03:04
03 - Laura 02:44
04 - Once In A Blue Moon 02:57
05 - Polka Dots And Moonbeams 03:05
06 - Down By The Old Mill Stream 02:20
07 - If I Should Lose You 03:12
08 - Rose Room 02:48
09 - I Surrender, Dear 02:58
10 - It Could Happen To You 02:49
11 - Don't Blame Me 03:04
12 - Little Girl 01:48

Состав:
  • Nat King Cole — piano, vocals
  • John Collins — guitar
  • Jack Costanzo — bongos, congas
  • Charlie Harris — bass
  • Norris "Bunny" Shawker — drums
  • Lee Young — drums
Лог проверки качества
foobar2000 1.4.3 / Dynamic Range Meter 1.1.1
log date: 2021-12-24 18:30:23
--------------------------------------------------------------------------------
Analyzed: Nat King Cole / Penthouse Serenade
--------------------------------------------------------------------------------
DR         Peak         RMS     Duration Track
--------------------------------------------------------------------------------
DR11      -0.30 dB   -14.86 dB      3:08 01-Penthouse Serenade (When We're Alone) (Remastered)
DR11      -0.30 dB   -13.39 dB      3:04 02-Somebody Loves Me (Remastered)
DR13      -0.30 dB   -16.60 dB      2:44 03-Laura (Remastered)
DR11      -0.30 dB   -13.98 dB      2:57 04-Once In A Blue Moon (Remastered)
DR15      -0.30 dB   -19.22 dB      3:06 05-Polka Dots And Moonbeams (Remastered)
DR11      -0.30 dB   -13.38 dB      2:20 06-Down By The Old Mill Stream (Remastered)
DR14      -0.38 dB   -18.26 dB      3:13 07-If I Should Lose You (Remastered)
DR11      -0.30 dB   -13.00 dB      2:48 08-Rose Room (Remastered)
DR14      -0.30 dB   -17.41 dB      2:59 09-I Surrender, Dear (Remastered)
DR12      -0.30 dB   -14.38 dB      2:49 10-It Could Happen To You (Remastered)
DR12      -0.30 dB   -15.15 dB      3:04 11-Don't Blame Me (Remastered)
DR12      -0.30 dB   -14.50 dB      1:49 12-Little Girl (Remastered)
--------------------------------------------------------------------------------
Number of tracks:  12
Official DR value: DR12
Samplerate:        96000 Hz
Channels:          2
Bits per sample:   24
Bitrate:           2619 kbps
Codec:             FLAC
================================================================================
Приватный:
Нет (DHT включён)
Размер:
615.75 Мб (645,656,504 байт) » файлов: 16
Участники:
0 раздают, 0 качают (0 участников всего)
Внешние участники:
--- [ Обновить ]
11:17
349
Нет комментариев. Ваш будет первым!