Поиск

1955 Jimmy Scott - Very Truly Yours (2019) {RevOla} [24-44.1]

1955 Jimmy Scott - Very Truly Yours (2019) {RevOla} [24-44.1]
Стили:
Издатель (лейбл):
Носитель:
WEB
Формат:
PCM
Тип рипа:
tracks
Контейнер:
FLAC (*.flac)
Количество каналов:
2.0
Разрядность/ЧД:
24/44,1
Битрейт аудио:
lossless
Наличие сканов:
только обложка

01 - Imagination 02:50
02 - How Can I Go On Without You? 02:19
03 - Time On My Hands 02:40
04 - When Did You Leave Heaven? 03:18
05 - Guilty 03:11
06 - Every Body Needs Somebody 02:31
07 - Why Don't You Open Your Heart? 02:34
08 - Don't Cry, Baby 02:09
09 - Street Of Dreams 02:35
10 - Someone To Watch Over Me 02:26
11 - The Show Goes On 03:11
12 - Very Truly Yours 02:17

Состав:
  • Alto Saxophone, Baritone Saxophone – Dave McRae
  • Bass – Al Hall, Charles Mingus, Jack Lesberg, Wendell Marshall
  • Bass Clarinet – Budd Johnson
  • Drums – Cliff Leeman, Dave Bailey, Kenny Clarke, Rudy Nichols
  • Guitar – Everett Barksdale, George Barnes, Mundell Lowe, Sal Salvador
  • Piano – Howard Biggs
  • Tenor Saxophone – Budd Johnson, George Berg
  • Vibraphone – Phil Kraus
  • Vocals – Little Jimmy Scott
Лог проверки качества
foobar2000 1.4.6 / Dynamic Range Meter 1.1.1
log date: 2022-01-18 09:16:12
--------------------------------------------------------------------------------
Analyzed: Jimmy Scott / Very Truly Yours
--------------------------------------------------------------------------------
DR         Peak         RMS     Duration Track
--------------------------------------------------------------------------------
DR10      -2.99 dB   -16.59 dB      2:51 01-Imagination (Remastered)
DR9       -4.40 dB   -16.74 dB      2:19 02-How Can I Go On Without You? (Remastered)
DR9       -3.96 dB   -17.76 dB      2:41 03-Time On My Hands (Remastered)
DR10      -4.06 dB   -17.49 dB      3:19 04-When Did You Leave Heaven? (Remastered)
DR10      -4.62 dB   -17.33 dB      3:12 05-Guilty (Remastered)
DR10      -3.55 dB   -15.75 dB      2:31 06-Every Body Needs Somebody (Remastered)
DR10      -3.71 dB   -18.07 dB      2:35 07-Why Don't You Open Your Heart? (Remastered)
DR9       -3.91 dB   -16.47 dB      2:10 08-Don't Cry, Baby (Remastered)
DR10      -5.52 dB   -18.68 dB      2:35 09-Street Of Dreams (Remastered)
DR9       -5.77 dB   -18.80 dB      2:26 10-Someone To Watch Over Me (Remastered)
DR9       -5.43 dB   -17.57 dB      3:12 11-The Show Goes On (Remastered)
DR9       -6.51 dB   -19.24 dB      2:18 12-Very Truly Yours (Remastered)
--------------------------------------------------------------------------------
Number of tracks:  12
Official DR value: DR10
Samplerate:        44100 Hz
Channels:          2
Bits per sample:   24
Bitrate:           1187 kbps
Codec:             FLAC
================================================================================
18:44
401
Нет комментариев. Ваш будет первым!