Поиск

1955 Carmen McRae - Star Eyes (2007) {Jazz Hour JHR 73641} [CD]

1955 Carmen McRae - Star Eyes (2007) {Jazz Hour JHR 73641} [CD]
Стили:
Номер по каталогу:
JHR 73641
Битрейт аудио:
lossless
Доп. инфо:

Носитель: CD
Страна-производитель диска (релиза): Portugal
Год издания: 2007
Издатель (лейбл): Imc Music Ltd./Jazz Hour Records
Аудиокодек: FLAC (*.flac)
Тип рипа: tracks+.cue
Битрейт аудио: lossless
Продолжительность: 73:06
Rip by LolaMontes
Наличие сканов в содержимом раздачи: да

Лог создания рипа
Exact Audio Copy V1.0 beta 4 from 7. December 2014
EAC extraction logfile from 9. June 2015, 16:21
Carmen McRae / A Jazz Hour With Carmen McRae
Used drive  : HL-DT-STDVD+-RW GH82N   Adapter: 1  ID: 0
Read mode               : Secure
Utilize accurate stream : Yes
Defeat audio cache      : Yes
Make use of C2 pointers : No
Read offset correction                      : 667
Overread into Lead-In and Lead-Out          : No
Fill up missing offset samples with silence : Yes
Delete leading and trailing silent blocks   : No
Null samples used in CRC calculations       : Yes
Used interface                              : Native Win32 interface for Win NT & 2000
Gap handling                                : Appended to previous track
Used output format              : User Defined Encoder
Selected bitrate                : 1024 kBit/s
Quality                         : High
Add ID3 tag                     : No
Command line compressor         : C:\Program Files (x86)\Exact Audio Copy\FLAC\FLAC.EXE
Additional command line options : -6 -V -T "ARTIST=%artist%" -T "TITLE=%title%" -T "ALBUM=%albumtitle%" -T "DATE=%year%" -T "TRACKNUMBER=%tracknr%" -T "GENRE=%genre%" -T "COMMENT=%comment%" -T "BAND=%albuminterpret%" -T "ALBUMARTIST=%albuminterpret%" -T "COMPOSER=%composer%" %haslyrics%--tag-from-file=LYRICS="%lyricsfile%"%haslyrics% -T "DISCNUMBER=%cdnumber%" -T "TOTALDISCS=%totalcds%" -T "TOTALTRACKS=%numtracks%" %hascover%--picture="%coverfile%"%hascover% %source% -o %dest%
TOC of the extracted CD
     Track |   Start  |  Length  | Start sector | End sector
    ---------------------------------------------------------
        1  |  0:00.00 |  2:40.49 |         0    |    12048
        2  |  2:40.49 |  2:33.67 |     12049    |    23590
        3  |  5:14.41 |  3:13.39 |     23591    |    38104
        4  |  8:28.05 |  2:40.31 |     38105    |    50135
        5  | 11:08.36 |  3:18.64 |     50136    |    65049
        6  | 14:27.25 |  3:24.10 |     65050    |    80359
        7  | 17:51.35 |  3:01.53 |     80360    |    93987
        8  | 20:53.13 |  3:11.24 |     93988    |   108336
        9  | 24:04.37 |  1:58.41 |    108337    |   117227
       10  | 26:03.03 |  2:19.51 |    117228    |   127703
       11  | 28:22.54 |  2:38.68 |    127704    |   139621
       12  | 31:01.47 |  2:36.74 |    139622    |   151395
       13  | 33:38.46 |  3:16.60 |    151396    |   166155
       14  | 36:55.31 |  2:46.64 |    166156    |   178669
       15  | 39:42.20 |  3:09.14 |    178670    |   192858
       16  | 42:51.34 |  2:56.58 |    192859    |   206116
       17  | 45:48.17 |  2:41.49 |    206117    |   218240
       18  | 48:29.66 |  2:36.41 |    218241    |   229981
       19  | 51:06.32 |  3:46.12 |    229982    |   246943
       20  | 54:52.44 |  2:38.48 |    246944    |   258841
       21  | 57:31.17 |  3:19.39 |    258842    |   273805
       22  | 60:50.56 |  3:11.12 |    273806    |   288142
       23  | 64:01.68 |  3:06.09 |    288143    |   302101
       24  | 67:08.02 |  2:48.63 |    302102    |   314764
       25  | 69:56.65 |  3:08.62 |    314765    |   328926
Track  1
     Filename C:\Rips\Carmen McRae - A Jazz Hour With Carmen McRae\01  - Just One Of Those Things.wav
     Pre-gap length  0:00:02.00
     Peak level 98.8 %
     Extraction speed 1.4 X
     Track quality 99.9 %
     Copy CRC 0C685F71
     Track not present in AccurateRip database
     Copy OK
Track  2
     Filename C:\Rips\Carmen McRae - A Jazz Hour With Carmen McRae\02  - Sometimes I'm Happy.wav
     Pre-gap length  0:00:02.00
     Peak level 98.8 %
     Extraction speed 1.8 X
     Track quality 100.0 %
     Copy CRC 5A143412
     Track not present in AccurateRip database
     Copy OK
Track  3
     Filename C:\Rips\Carmen McRae - A Jazz Hour With Carmen McRae\03  - Something To Live For.wav
     Pre-gap length  0:00:02.00
     Peak level 90.1 %
     Extraction speed 1.7 X
     Track quality 99.9 %
     Copy CRC CC8F2C2B
     Track not present in AccurateRip database
     Copy OK
Track  4
     Filename C:\Rips\Carmen McRae - A Jazz Hour With Carmen McRae\04  - Love Is Here To Stay.wav
     Pre-gap length  0:00:02.00
     Peak level 98.8 %
     Extraction speed 2.1 X
     Track quality 100.0 %
     Copy CRC 6ECA1136
     Track not present in AccurateRip database
     Copy OK
Track  5
     Filename C:\Rips\Carmen McRae - A Jazz Hour With Carmen McRae\05  - I Can't Get Started (With You).wav
     Pre-gap length  0:00:02.00
     Peak level 98.8 %
     Extraction speed 1.9 X
     Track quality 99.9 %
     Copy CRC 9DC4AFEA
     Track not present in AccurateRip database
     Copy OK
Track  6
    Filename C:\Rips\Carmen McRae - A Jazz Hour With Carmen McRae\06  - This Will Make You Laugh.wav
     Pre-gap length  0:00:02.00
     Peak level 94.5 %
     Extraction speed 2.3 X
     Track quality 100.0 %
     Copy CRC 267E64F7
     Track not present in AccurateRip database
     Copy OK
Track  7
     Filename C:\Rips\Carmen McRae - A Jazz Hour With Carmen McRae\07  - Supper Time.wav
     Pre-gap length  0:00:02.00
     Peak level 79.5 %
     Extraction speed 2.5 X
     Track quality 100.0 %
     Copy CRC 48D45CF9
     Track not present in AccurateRip database
     Copy OK
Track  8
     Filename C:\Rips\Carmen McRae - A Jazz Hour With Carmen McRae\08  - My One And Only Love.wav
     Pre-gap length  0:00:02.00
     Peak level 90.4 %
     Extraction speed 2.6 X
     Track quality 100.0 %
     Copy CRC EECF5073
     Track not present in AccurateRip database
     Copy OK
Track  9
     Filename C:\Rips\Carmen McRae - A Jazz Hour With Carmen McRae\09  - Yardbird Suite.wav
     Pre-gap length  0:00:02.00
     Peak level 98.8 %
     Extraction speed 1.9 X
     Track quality 99.9 %
     Copy CRC 325517A7
     Track not present in AccurateRip database
     Copy OK
Track 10
     Filename C:\Rips\Carmen McRae - A Jazz Hour With Carmen McRae\10  - Give Me The Simple Life.wav
     Pre-gap length  0:00:02.00
     Peak level 91.2 %
     Extraction speed 2.5 X
     Track quality 100.0 %
     Copy CRC F468F631
     Track not present in AccurateRip database
     Copy OK
Track 11
     Filename C:\Rips\Carmen McRae - A Jazz Hour With Carmen McRae\11  - I'll Remember April.wav
     Pre-gap length  0:00:02.00
     Peak level 98.8 %
     Extraction speed 2.6 X
     Track quality 100.0 %
     Copy CRC 788DBD99
     Track not present in AccurateRip database
     Copy OK
Track 12
     Filename C:\Rips\Carmen McRae - A Jazz Hour With Carmen McRae\12  - You Took Advantage Of Me.wav
     Pre-gap length  0:00:02.00
     Peak level 97.1 %
     Extraction speed 2.7 X
     Track quality 100.0 %
     Copy CRC D03A9585
     Track not present in AccurateRip database
     Copy OK
Track 13
     Filename C:\Rips\Carmen McRae - A Jazz Hour With Carmen McRae\13  - My Future Just Passed.wav
     Pre-gap length  0:00:02.00
     Peak level 97.5 %
     Extraction speed 2.9 X
     Track quality 100.0 %
     Copy CRC B88E508C
     Track not present in AccurateRip database
     Copy OK
Track 14
     Filename C:\Rips\Carmen McRae - A Jazz Hour With Carmen McRae\14  - If You'd Stay The Way I Dreamed About You.wav
     Pre-gap length  0:00:02.00
     Peak level 98.5 %
     Extraction speed 2.9 X
     Track quality 100.0 %
     Copy CRC 14A50B00
     Track not present in AccurateRip database
     Copy OK
Track 15
     Filename C:\Rips\Carmen McRae - A Jazz Hour With Carmen McRae\15  - Speak Low.wav
     Pre-gap length  0:00:02.00
     Peak level 94.8 %
     Extraction speed 3.0 X
     Track quality 100.0 %
     Copy CRC 01F2DE21
     Track not present in AccurateRip database
     Copy OK
Track 16
     Filename C:\Rips\Carmen McRae - A Jazz Hour With Carmen McRae\16  - But Beautiful.wav
     Pre-gap length  0:00:02.00
     Peak level 98.8 %
     Extraction speed 3.2 X
     Track quality 100.0 %
     Copy CRC 94334241
     Track not present in AccurateRip database
     Copy OK
Track 17
     Filename C:\Rips\Carmen McRae - A Jazz Hour With Carmen McRae\17  - I Guess I'll Dress Up For The Blues.wav
     Pre-gap length  0:00:02.00
     Peak level 98.8 %
     Extraction speed 2.6 X
     Track quality 99.9 %
     Copy CRC 4197E29D
     Track not present in AccurateRip database
     Copy OK
Track 18
     Filename C:\Rips\Carmen McRae - A Jazz Hour With Carmen McRae\18  - Yesterdays.wav
     Pre-gap length  0:00:02.00
     Peak level 98.8 %
     Extraction speed 3.1 X
     Track quality 100.0 %
     Copy CRC 83CE047B
     Track not present in AccurateRip database
     Copy OK
Track 19
     Filename C:\Rips\Carmen McRae - A Jazz Hour With Carmen McRae\19  - Midnight Sun.wav
     Pre-gap length  0:00:02.00
     Peak level 95.8 %
     Extraction speed 3.5 X
     Track quality 100.0 %
     Copy CRC 31C79A19
     Track not present in AccurateRip database
     Copy OK
Track 20
     Filename C:\Rips\Carmen McRae - A Jazz Hour With Carmen McRae\20  - Last Night When We Were Young.wav
     Pre-gap length  0:00:02.00
     Peak level 98.8 %
     Extraction speed 3.3 X
     Track quality 100.0 %
     Copy CRC DA3EC6D6
     Track not present in AccurateRip database
     Copy OK
Track 21
     Filename C:\Rips\Carmen McRae - A Jazz Hour With Carmen McRae\21  - Good Morning, Heartache.wav
     Pre-gap length  0:00:02.00
     Peak level 98.8 %
     Extraction speed 3.0 X
     Track quality 99.9 %
     Copy CRC 86B586E7
     Track not present in AccurateRip database
     Copy OK
Track 22
     Filename C:\Rips\Carmen McRae - A Jazz Hour With Carmen McRae\22  - I Dont Stand A Ghost Of A Chance With You.wav
     Pre-gap length  0:00:02.00
     Peak level 98.8 %
     Extraction speed 3.5 X
     Track quality 100.0 %
     Copy CRC A020F06B
     Track not present in AccurateRip database
     Copy OK
Track 23
     Filename C:\Rips\Carmen McRae - A Jazz Hour With Carmen McRae\23  - We'll Be Together Again.wav
     Pre-gap length  0:00:02.00
     Peak level 98.8 %
     Extraction speed 3.5 X
     Track quality 100.0 %
     Copy CRC 292AB859
     Track not present in AccurateRip database
     Copy OK
Track 24
     Filename C:\Rips\Carmen McRae - A Jazz Hour With Carmen McRae\24  - I'm A Dreamer, Aren't We All.wav
     Pre-gap length  0:00:02.00
     Peak level 90.3 %
     Extraction speed 3.5 X
     Track quality 100.0 %
     Copy CRC F5C29C71
     Track not present in AccurateRip database
     Copy OK
Track 25
     Filename C:\Rips\Carmen McRae - A Jazz Hour With Carmen McRae\25  - Star Eyes.wav
     Pre-gap length  0:00:02.00
     Peak level 98.8 %
     Extraction speed 3.8 X
     Track quality 100.0 %
     Copy CRC D610AD41
     Track not present in AccurateRip database
     Copy OK
None of the tracks are present in the AccurateRip database
No errors occurred
End of status report
---- CUETools DB Plugin V2.1.4
[CTDB TOCID: mvxHOmK2LMeVUQR1gVk_el2v1NU-] disk not present in database
Submit result: mvxHOmK2LMeVUQR1gVk_el2v1NU- has been uploaded
==== Log checksum 16446DB287609A5A91F5968755298566271B2CBB2AFA080506D1BFA4D540B5AC ====
Содержание индексной карты (.CUE)
REM GENRE Jazz
REM DATE 2007
REM DISCID 54112119
REM COMMENT "ExactAudioCopy v1.0b4"
PERFORMER "Carmen McRae"
TITLE "A Jazz Hour With Carmen McRae"
FILE "01. Just One Of Those Things.flac" WAVE
  TRACK 01 AUDIO
    TITLE "Just One Of Those Things"
    PERFORMER "Carmen McRae"
    INDEX 01 00:00:00
  TRACK 02 AUDIO
    TITLE "Sometimes I'm Happy"
    PERFORMER "Carmen McRae"
    INDEX 00 02:38:49
FILE "02. Sometimes I'm Happy.flac" WAVE
    INDEX 01 00:00:00
  TRACK 03 AUDIO
    TITLE "Something To Live For"
    PERFORMER "Carmen McRae"
    INDEX 00 02:31:67
FILE "03. Something To Live For.flac" WAVE
    INDEX 01 00:00:00
  TRACK 04 AUDIO
    TITLE "Love Is Here To Stay"
    PERFORMER "Carmen McRae"
    INDEX 00 03:11:39
FILE "04. Love Is Here To Stay.flac" WAVE
    INDEX 01 00:00:00
  TRACK 05 AUDIO
    TITLE "I Can't Get Started (With You)"
    PERFORMER "Carmen McRae"
    INDEX 00 02:38:31
FILE "05. I Can't Get Started (With You).flac" WAVE
    INDEX 01 00:00:00
  TRACK 06 AUDIO
    TITLE "This Will Make You Laugh"
    PERFORMER "Carmen McRae"
    INDEX 00 03:16:64
FILE "06. This Will Make You Laugh.flac" WAVE
    INDEX 01 00:00:00
  TRACK 07 AUDIO
    TITLE "Supper Time"
    PERFORMER "Carmen McRae"
    INDEX 00 03:22:10
FILE "07. Supper Time.flac" WAVE
    INDEX 01 00:00:00
  TRACK 08 AUDIO
    TITLE "My One And Only Love"
    PERFORMER "Carmen McRae"
    INDEX 00 02:59:53
FILE "08. My One And Only Love.flac" WAVE
    INDEX 01 00:00:00
  TRACK 09 AUDIO
    TITLE "Yardbird Suite"
    PERFORMER "Carmen McRae"
    INDEX 00 03:09:24
FILE "09. Yardbird Suite.flac" WAVE
    INDEX 01 00:00:00
  TRACK 10 AUDIO
    TITLE "Give Me The Simple Life"
    PERFORMER "Carmen McRae"
    INDEX 00 01:56:41
FILE "10. Give Me The Simple Life.flac" WAVE
    INDEX 01 00:00:00
  TRACK 11 AUDIO
    TITLE "I'll Remember April"
    PERFORMER "Carmen McRae"
    INDEX 00 02:17:51
FILE "11. I'll Remember April.flac" WAVE
    INDEX 01 00:00:00
  TRACK 12 AUDIO
    TITLE "You Took Advantage Of Me"
    PERFORMER "Carmen McRae"
    INDEX 00 02:36:68
FILE "12. You Took Advantage Of Me.flac" WAVE
    INDEX 01 00:00:00
  TRACK 13 AUDIO
    TITLE "My Future Just Passed"
    PERFORMER "Carmen McRae"
    INDEX 00 02:34:74
FILE "13. My Future Just Passed.flac" WAVE
    INDEX 01 00:00:00
  TRACK 14 AUDIO
    TITLE "If You'd Stay The Way I Dream About You"
    PERFORMER "Carmen McRae"
    INDEX 00 03:14:60
FILE "14. If You'd Stay The Way I Dream About You.flac" WAVE
    INDEX 01 00:00:00
  TRACK 15 AUDIO
    TITLE "Speak Low"
    PERFORMER "Carmen McRae"
    INDEX 00 02:44:64
FILE "15. Speak Low.flac" WAVE
    INDEX 01 00:00:00
  TRACK 16 AUDIO
    TITLE "But Beautiful"
    PERFORMER "Carmen McRae"
    INDEX 00 03:07:14
FILE "16. But Beautiful.flac" WAVE
    INDEX 01 00:00:00
  TRACK 17 AUDIO
    TITLE "I Guess I'll Dress Up For The Blues"
    PERFORMER "Carmen McRae"
    INDEX 00 02:54:58
FILE "17. I Guess I'll Dress Up For The Blues.flac" WAVE
    INDEX 01 00:00:00
  TRACK 18 AUDIO
    TITLE "Yesterdays"
    PERFORMER "Carmen McRae"
    INDEX 00 02:39:49
FILE "18. Yesterdays.flac" WAVE
    INDEX 01 00:00:00
  TRACK 19 AUDIO
    TITLE "Midnight Sun"
    PERFORMER "Carmen McRae"
    INDEX 00 02:34:41
FILE "19. Midnight Sun.flac" WAVE
    INDEX 01 00:00:00
  TRACK 20 AUDIO
    TITLE "Last Night When We Were Young"
    PERFORMER "Carmen McRae"
    INDEX 00 03:44:12
FILE "20. Last Night When We Were Young.flac" WAVE
    INDEX 01 00:00:00
  TRACK 21 AUDIO
    TITLE "Good Morning, Heartache"
    PERFORMER "Carmen McRae"
    INDEX 00 02:36:48
FILE "21. Good Morning, Heartache.flac" WAVE
    INDEX 01 00:00:00
  TRACK 22 AUDIO
    TITLE "I Don't Stand A Ghost Of A Chance With You"
    PERFORMER "Carmen McRae"
    INDEX 00 03:17:39
FILE "22. I Don't Stand A Ghost Of A Chance With You.flac" WAVE
    INDEX 01 00:00:00
  TRACK 23 AUDIO
    TITLE "We'll Be Together Again"
    PERFORMER "Carmen McRae"
    INDEX 00 03:09:12
FILE "23. We'll Be Together Again.flac" WAVE
    INDEX 01 00:00:00
  TRACK 24 AUDIO
    TITLE "I'm A Dreamer, Aren't We All"
    PERFORMER "Carmen McRae"
    INDEX 00 03:04:09
FILE "24. I'm A Dreamer, Aren't We All.flac" WAVE
    INDEX 01 00:00:00
  TRACK 25 AUDIO
    TITLE "Star Eyes"
    PERFORMER "Carmen McRae"
    INDEX 00 02:46:63
FILE "25. Star Eyes.flac" WAVE
    INDEX 01 00:00:00
No seeders - write personal message to M0p94ok. Any questions - support@pro-jazz.com.
Нет сидеров - пишите в личку M0p94ok. Есть вопросы - support@pro-jazz.com
16:28
135
Нет комментариев. Ваш будет первым!