Поиск

1955 (1994) Cannonball Adderley - Presenting Cannonball

1955 (1994) Cannonball Adderley - Presenting Cannonball
Страна-производитель диска (релиза):
USA
Дата издания диска:
26 июля 1955
Дата переиздания диска:
1994
Номер по каталогу:
513691F
Носитель:
CD
Битрейт аудио:
lossless
Аудиокодек:
FLAC (*.flac)
Тип рипа:
tracks
Время звучания:
38:22
Наличие сканов:
  • да
Релизёр (источник):
mironov_ad
Треклист:

01. Spontaneous Combustion (Adderley) 10:06
02. Still Talkin' to Ya (Adderley) 8:58
03. A Little Taste (Adderley) 5:06
04. Caribbean Cutie (Adderley) 7:06
05. Flamingo (Anderson, Grouya) 7:06

Состав:
Лог создания рипа
<spoiler title="Лог создания рипа"><pre>
EAC extraction logfile from 7. October 2007, 17:40 for CD
Cannonball Adderly / Presenting Cannonball Adderley
Used drive : LITE-ON CD-ROM LTN-527T Adapter: 1 ID: 1
Read mode : Secure with NO C2, accurate stream, disable cache
Read offset correction : 12
Overread into Lead-In and Lead-Out : Yes
Used output format : C:\Program Files\FLAC\flac.exe (User Defined Encoder)
320 kBit/s
Additional command line options : -V -8 -T "artist=%a" -T "title=%t" -T "album=%g" -T "date=%y" -T "tracknumber=%n" -T "genre=%m" %s
Other options :
Fill up missing offset samples with silence : Yes
Delete leading and trailing silent blocks : No
Installed external ASPI interface
Track 1
Filename F:\Downloads\Cannonball Adderley - Presenting Cannonball Adderley (1955) [FLAC]\01 - Spontaneous Combustion.wav
Pre-gap length 0:00:02.00
Peak level 100.0 %
Track quality 100.0 %
Test CRC 3B8041DE
Copy CRC 3B8041DE
Copy OK
Track 2
Filename F:\Downloads\Cannonball Adderley - Presenting Cannonball Adderley (1955) [FLAC]\02 - Still Talkin' To Ya.wav
Pre-gap length 0:00:02.89
Peak level 98.1 %
Track quality 99.9 %
Test CRC B5CBBC3C
Copy CRC B5CBBC3C
Copy OK
Track 3
Filename F:\Downloads\Cannonball Adderley - Presenting Cannonball Adderley (1955) [FLAC]\03 - A Little Taste.wav
Pre-gap length 0:00:03.02
Peak level 97.1 %
Track quality 100.0 %
Test CRC CF1606BC
Copy CRC CF1606BC
Copy OK
Track 4
Filename F:\Downloads\Cannonball Adderley - Presenting Cannonball Adderley (1955) [FLAC]\04 - Caribbean Cutie.wav
Pre-gap length 0:00:02.82
Peak level 100.0 %
Track quality 100.0 %
Test CRC C1111A3A
Copy CRC C1111A3A
Copy OK
Track 5
Filename F:\Downloads\Cannonball Adderley - Presenting Cannonball Adderley (1955) [FLAC]\05 - Flamingo.wav
Pre-gap length 0:00:03.29
Peak level 93.3 %
Track quality 100.0 %
Test CRC 9FB77EB2
Copy CRC 9FB77EB2
Copy OK
No errors occured
End of status report
</pre></spoiler>
Приватный:
Нет (DHT включён)
Размер:
165.94 Мб (174,002,758 байт) » файлов: 15
Участники:
0 раздают, 0 качают (0 участников всего)
Внешние участники:
5 раздают, 1 качают (6 участников всего) [ Обновить ]
20:12
54
RSS
Нет комментариев. Ваш будет первым!