Поиск

1955-1961 Rosemary Clooney - Eight Classic Albums (2013) {Real Gone RGMCD058} [4CD]

1955-1961 Rosemary Clooney - Eight Classic Albums (2013) {Real Gone RGMCD058} [4CD]
Стили:
Страна-производитель диска (релиза):
EU
Дата записи диска:
1951-1961
Дата издания диска:
2013
Номер по каталогу:
RGMCD058
Носитель:
CD
Аудиокодек:
FLAC (*.flac)
Тип рипа:
image+.cue
Битрейт аудио:
lossless
Время звучания:
04:21:24
Наличие сканов:
нет
Релизёр (источник):
ssagwebster
Треклист:
 
CD1 {73:21}

Hollywood's Best (With Harry James) (1955)
01. You'll Never Know (3:08)
02. On the Atchison, Topeka and the Santa Fe (2:34)
03. Ruby (2:44)
04. It Might as Well Be Spring (3:12)
05. Come on-a My House (1:57)
06. Over the Rainbow (3:23)
07. Sweet Leilani (3:00)
08. The Continental (You Kiss While You're Dancing) (2:57)
09. Stella by Starlight (3:09)
10. When You Wish Upon a Star (3:05)
11. Red Garters (2:41)
12. In the Cool, Cool, Cool of the Evening (2:59)
Blue Rose (With Duke Ellington) (1956)
13. Hey Baby (3:49)
14. Sophisticated Lady (2:58)
15. Me and You (2:28)
16. Passion Flower (4:31)
17. I Let a Song Go Out of My Heart (2:38)
18. It Don't Mean a Thing (If It Ain't Got That Swing) (2:50)
19. Grievin' (4:11)
20. Blue Rose (2:22)
21. I'm Checking Out-Goombye (3:10)
22. I Got It Bad (And That Ain't Good) (3:07)
23. Mood Indigo (6:28)

 
Лог создания рипа
Exact Audio Copy V1.1 from 23. June 2015
EAC extraction logfile from 17. December 2017, 14:35
Rosemary Clooney / Eight Classic Albums (Disc 1): Hollywood's Best (With Harry James) & Blue Rose (With Duke Ellington)
Used drive  : PLEXTOR DVDR   PX-760A   Adapter: 1  ID: 1
Read mode               : Secure
Utilize accurate stream : Yes
Defeat audio cache      : Yes
Make use of C2 pointers : No
Read offset correction                      : 30
Overread into Lead-In and Lead-Out          : No
Fill up missing offset samples with silence : Yes
Delete leading and trailing silent blocks   : No
Null samples used in CRC calculations       : Yes
Used interface                              : Native Win32 interface for Win NT & 2000
Used output format              : User Defined Encoder
Selected bitrate                : 1024 kBit/s
Quality                         : High
Add ID3 tag                     : No
Command line compressor         : C:\Program Files (x86)\FLAC\flac.exe
Additional command line options : -5 -V -T "ARTIST=%artist%" -T "TITLE=%title%" -T "ALBUM=%albumtitle%" -T "DATE=%year%" -T "TRACKNUMBER=%tracknr%" -T "GENRE=%genre%" -T "COMMENT=[oStereo.ru]" %source%
TOC of the extracted CD
     Track |   Start  |  Length  | Start sector | End sector
    ---------------------------------------------------------
        1  |  0:00.00 |  3:07.55 |         0    |    14079
        2  |  3:07.55 |  2:33.45 |     14080    |    25599
        3  |  5:41.25 |  2:43.22 |     25600    |    37846
        4  |  8:24.47 |  3:11.58 |     37847    |    52229
        5  | 11:36.30 |  1:56.56 |     52230    |    60985
        6  | 13:33.11 |  3:22.56 |     60986    |    76191
        7  | 16:55.67 |  2:59.40 |     76192    |    89656
        8  | 19:55.32 |  2:56.59 |     89657    |   102915
        9  | 22:52.16 |  3:08.56 |    102916    |   117071
       10  | 26:00.72 |  3:04.49 |    117072    |   130920
       11  | 29:05.46 |  2:40.33 |    130921    |   142953
       12  | 31:46.04 |  2:58.58 |    142954    |   156361
       13  | 34:44.62 |  3:48.21 |    156362    |   173482
       14  | 38:33.08 |  2:57.46 |    173483    |   186803
       15  | 41:30.54 |  2:27.67 |    186804    |   197895
       16  | 43:58.46 |  4:30.40 |    197896    |   218185
       17  | 48:29.11 |  2:37.41 |    218186    |   230001
       18  | 51:06.52 |  2:49.72 |    230002    |   242748
       19  | 53:56.49 |  4:10.14 |    242749    |   261512
       20  | 58:06.63 |  2:21.44 |    261513    |   272131
       21  | 60:28.32 |  3:09.62 |    272132    |   286368
       22  | 63:38.19 |  3:06.74 |    286369    |   300392
       23  | 66:45.18 |  6:27.22 |    300393    |   329439
Range status and errors
Selected range
     Filename D:\Rosemary Clooney - 8 Classic Albums - CD1 - RGM.wav
     Peak level 99.9 %
     Extraction speed 1.2 X
     Range quality 100.0 %
     Copy CRC 3A79C41C
     Copy OK
No errors occurred
AccurateRip summary
Track  1  accurately ripped (confidence 2)  [4D060ADF]  (AR v2)
Track  2  accurately ripped (confidence 2)  [CB0B5F0E]  (AR v2)
Track  3  accurately ripped (confidence 2)  [EF2CFDD6]  (AR v2)
Track  4  accurately ripped (confidence 2)  [97BC1A2B]  (AR v2)
Track  5  accurately ripped (confidence 2)  [56934F03]  (AR v2)
Track  6  accurately ripped (confidence 2)  [3D9A1F95]  (AR v2)
Track  7  accurately ripped (confidence 2)  [323728C3]  (AR v2)
Track  8  accurately ripped (confidence 2)  [12E028AB]  (AR v2)
Track  9  accurately ripped (confidence 2)  [BD8352DB]  (AR v2)
Track 10  accurately ripped (confidence 2)  [E7EAA136]  (AR v2)
Track 11  accurately ripped (confidence 2)  [F4B1AA24]  (AR v2)
Track 12  accurately ripped (confidence 2)  [4E546540]  (AR v2)
Track 13  accurately ripped (confidence 2)  [8C846FEC]  (AR v2)
Track 14  accurately ripped (confidence 2)  [E05FDAE7]  (AR v2)
Track 15  accurately ripped (confidence 2)  [09281DBE]  (AR v2)
Track 16  accurately ripped (confidence 2)  [86A1697F]  (AR v2)
Track 17  accurately ripped (confidence 2)  [9A31A2B0]  (AR v2)
Track 18  accurately ripped (confidence 2)  [1FFD3AEC]  (AR v2)
Track 19  accurately ripped (confidence 2)  [78F03E6A]  (AR v2)
Track 20  accurately ripped (confidence 2)  [FC94AC9B]  (AR v2)
Track 21  accurately ripped (confidence 2)  [007B9CD3]  (AR v2)
Track 22  accurately ripped (confidence 2)  [940161E9]  (AR v2)
Track 23  accurately ripped (confidence 2)  [9D71A109]  (AR v2)
All tracks accurately ripped
End of status report
==== Log checksum 7E1D3C52E0DFA032810F990C2A437D5D0FC190409655DC736D3D494206E6E94B ====
 
Содержание индексной карты (.CUE)
REM GENRE Jazz
REM DATE 2013
REM DISCID 4D112817
REM COMMENT "ExactAudioCopy v1.1"
PERFORMER "Rosemary Clooney"
TITLE "Eight Classic Albums CD1"
FILE "Rosemary Clooney - Eight Classic Albums CD1.wav" WAVE
  TRACK 01 AUDIO
    TITLE "You'll Never Know"
    PERFORMER "Rosemary Clooney"
    INDEX 01 00:00:00
  TRACK 02 AUDIO
    TITLE "On the Atchison, Topeka and the Santa Fe"
    PERFORMER "Rosemary Clooney"
    INDEX 01 03:07:55
  TRACK 03 AUDIO
    TITLE "Ruby"
    PERFORMER "Rosemary Clooney"
    INDEX 01 05:41:25
  TRACK 04 AUDIO
    TITLE "It Might as Well Be Spring"
    PERFORMER "Rosemary Clooney"
    INDEX 01 08:24:47
  TRACK 05 AUDIO
    TITLE "Come on-a My House"
    PERFORMER "Rosemary Clooney"
    INDEX 01 11:36:30
  TRACK 06 AUDIO
    TITLE "Over the Rainbow"
    PERFORMER "Rosemary Clooney"
    INDEX 01 13:33:11
  TRACK 07 AUDIO
    TITLE "Sweet Leilani"
    PERFORMER "Rosemary Clooney"
    INDEX 01 16:55:67
  TRACK 08 AUDIO
    TITLE "The Continental (You Kiss While You're Dancing)"
    PERFORMER "Rosemary Clooney"
    INDEX 01 19:55:32
  TRACK 09 AUDIO
    TITLE "Stella by Starlight"
    PERFORMER "Rosemary Clooney"
    INDEX 01 22:52:16
  TRACK 10 AUDIO
    TITLE "When You Wish Upon a Star"
    PERFORMER "Rosemary Clooney"
    INDEX 01 26:00:72
  TRACK 11 AUDIO
    TITLE "Red Garters"
    PERFORMER "Rosemary Clooney"
    INDEX 01 29:05:46
  TRACK 12 AUDIO
    TITLE "In the Cool, Cool, Cool of the Evening"
    PERFORMER "Rosemary Clooney"
    INDEX 01 31:46:04
  TRACK 13 AUDIO
    TITLE "Hey Baby"
    PERFORMER "Rosemary Clooney"
    INDEX 01 34:44:62
  TRACK 14 AUDIO
    TITLE "Sophisticated Lady"
    PERFORMER "Rosemary Clooney"
    INDEX 01 38:33:08
  TRACK 15 AUDIO
    TITLE "Me and You"
    PERFORMER "Rosemary Clooney"
    INDEX 01 41:30:54
  TRACK 16 AUDIO
    TITLE "Passion Flower"
    PERFORMER "Rosemary Clooney"
    INDEX 01 43:58:46
  TRACK 17 AUDIO
    TITLE "I Let a Song Go Out of My Heart"
    PERFORMER "Rosemary Clooney"
    INDEX 01 48:29:11
  TRACK 18 AUDIO
    TITLE "It Don't Mean a Thing (If It Ain't Got That Swing)"
    PERFORMER "Rosemary Clooney"
    INDEX 01 51:06:52
  TRACK 19 AUDIO
    TITLE "Grievin'"
    PERFORMER "Rosemary Clooney"
    INDEX 01 53:56:49
  TRACK 20 AUDIO
    TITLE "Blue Rose"
    PERFORMER "Rosemary Clooney"
    INDEX 01 58:06:63
  TRACK 21 AUDIO
    TITLE "I'm Checking Out-Goombye"
    PERFORMER "Rosemary Clooney"
    INDEX 01 60:28:32
  TRACK 22 AUDIO
    TITLE "I Got It Bad (And That Ain't Good)"
    PERFORMER "Rosemary Clooney"
    INDEX 01 63:38:19
  TRACK 23 AUDIO
    TITLE "Mood Indigo"
    PERFORMER "Rosemary Clooney"
    INDEX 01 66:45:18
 
Отчет CUETools
[CUETools log; Date: 06.11.2018 13:48:41; Version: 2.1.5]
[CTDB TOCID: UOG2mBVLOkCfhfzv7iWtMkVypIE-] found.
Track | CTDB Status
  1   | (20/20) Accurately ripped
  2   | (20/20) Accurately ripped
  3   | (20/20) Accurately ripped
  4   | (20/20) Accurately ripped
  5   | (20/20) Accurately ripped
  6   | (20/20) Accurately ripped
  7   | (20/20) Accurately ripped
  8   | (20/20) Accurately ripped
  9   | (20/20) Accurately ripped
 10   | (20/20) Accurately ripped
 11   | (20/20) Accurately ripped
 12   | (20/20) Accurately ripped
 13   | (20/20) Accurately ripped
 14   | (20/20) Accurately ripped
 15   | (20/20) Accurately ripped
 16   | (20/20) Accurately ripped
 17   | (20/20) Accurately ripped
 18   | (20/20) Accurately ripped
 19   | (20/20) Accurately ripped
 20   | (20/20) Accurately ripped
 21   | (20/20) Accurately ripped
 22   | (20/20) Accurately ripped
 23   | (19/20) Accurately ripped
[AccurateRip ID: 00388bb8-03b73628-4d112817] found.
Track   [  CRC   |   V2   ] Status
 01     [d3058dec|4d060adf] (00+03/14) Accurately ripped
 02     [7e76b781|cb0b5f0e] (00+03/14) Accurately ripped
 03     [572ce7c6|ef2cfdd6] (00+03/12) Accurately ripped
 04     [e1947ae3|97bc1a2b] (00+03/14) Accurately ripped
 05     [22222cd4|56934f03] (00+03/13) Accurately ripped
 06     [1c8d4f0a|3d9a1f95] (00+03/14) Accurately ripped
 07     [d4c85a94|323728c3] (00+03/14) Accurately ripped
 08     [b320020e|12e028ab] (00+03/14) Accurately ripped
 09     [7867836c|bd8352db] (00+03/14) Accurately ripped
 10     [69630723|e7eaa136] (00+03/14) Accurately ripped
 11     [52f9997e|f4b1aa24] (00+03/14) Accurately ripped
 12     [b003a875|4e546540] (00+03/14) Accurately ripped
 13     [9b1946c0|8c846fec] (00+03/14) Accurately ripped
 14     [21dd9174|e05fdae7] (00+03/14) Accurately ripped
 15     [266bfa56|09281dbe] (00+03/14) Accurately ripped
 16     [6fe7e820|86a1697f] (00+03/14) Accurately ripped
 17     [4c746635|9a31a2b0] (00+03/14) Accurately ripped
 18     [46469ffc|1ffd3aec] (00+03/14) Accurately ripped
 19     [2925080d|78f03e6a] (00+03/14) Accurately ripped
 20     [177d6fd3|fc94ac9b] (00+03/14) Accurately ripped
 21     [adedb546|007b9cd3] (00+03/14) Accurately ripped
 22     [1fbb9909|940161e9] (00+03/14) Accurately ripped
 23     [919fd41e|9d71a109] (00+03/14) Accurately ripped
Offsetted by -48:
 01     [9142806c] (00/14) No match (V2 was not tested)
 02     [53211dc1] (00/14) No match (V2 was not tested)
 03     [f7192816] (00/12) No match (V2 was not tested)
 04     [5b0b0ab3] (00/14) No match (V2 was not tested)
 05     [369e47a4] (00/13) No match (V2 was not tested)
 06     [6f94f88a] (00/14) No match (V2 was not tested)
 07     [de4d7d44] (00/14) No match (V2 was not tested)
 08     [8745425e] (00/14) No match (V2 was not tested)
 09     [2a3fb2ec] (00/14) No match (V2 was not tested)
 10     [27739bd3] (00/14) No match (V2 was not tested)
 11     [da73d66e] (00/14) No match (V2 was not tested)
 12     [f28c8ea7] (00/14) No match (V2 was not tested)
 13     [559aecbe] (00/14) No match (V2 was not tested)
 14     [09375184] (00/14) No match (V2 was not tested)
 15     [2018e276] (00/14) No match (V2 was not tested)
 16     [b6b12770] (00/14) No match (V2 was not tested)
 17     [29b5f7e5] (00/14) No match (V2 was not tested)
 18     [ad8cfa8c] (00/14) No match (V2 was not tested)
 19     [a77e9cdd] (00/14) No match (V2 was not tested)
 20     [dcf34dd3] (00/14) No match (V2 was not tested)
 21     [ed281ce6] (00/14) No match (V2 was not tested)
 22     [4c7c5479] (00/14) No match (V2 was not tested)
 23     [26d5e03d] (00/14) No match (V2 was not tested)
Offsetted by -12:
 01     [4294ca8c] (00/14) No match (V2 was not tested)
 02     [73a15111] (00/14) No match (V2 was not tested)
 03     [bf27f7da] (00/12) No match (V2 was not tested)
 04     [3ff21ed7] (00/14) No match (V2 was not tested)
 05     [27413388] (00/13) No match (V2 was not tested)
 06     [314f396a] (00/14) No match (V2 was not tested)
 07     [9729a340] (00/14) No match (V2 was not tested)
 08     [68295222] (00/14) No match (V2 was not tested)
 09     [24dd8f4c] (00/14) No match (V2 was not tested)
 10     [58e72c4f] (00/14) No match (V2 was not tested)
 11     [b4d828ba] (00/14) No match (V2 was not tested)
 12     [4be25d3b] (00/14) No match (V2 was not tested)
 13     [49e9b086] (00/14) No match (V2 was not tested)
 14     [5bb40178] (00/14) No match (V2 was not tested)
 15     [64d7345e] (00/14) No match (V2 was not tested)
 16     [819a37f4] (00/14) No match (V2 was not tested)
 17     [c3c4caa1] (00/14) No match (V2 was not tested)
 18     [e01836a0] (00/14) No match (V2 was not tested)
 19     [08bb6d41] (00/14) No match (V2 was not tested)
 20     [48dae753] (00/14) No match (V2 was not tested)
 21     [7dbc4f2e] (00/14) No match (V2 was not tested)
 22     [2aebc7e5] (00/14) No match (V2 was not tested)
 23     [d604bb59] (00/14) No match (V2 was not tested)
Track Peak [ CRC32  ] [W/O NULL] [  LOG   ]
 --   99,9 [3A79C41C] [860E9A5F]   CRC32
 01   99,9 [45908076] [733B214A]
 02   99,9 [E27AD1F8] [F8B90E7E]
 03   99,9 [C6F14CA2] [58B73DB4]
 04   99,9 [BDAA5834] [2466D905]
 05   99,9 [2109D67D] [7DAEC6D6]
 06   99,9 [FC88C2DB] [9289C207]
 07   99,9 [5C4F12C3] [3C85CBD8]
 08   99,8 [C7CFAD26] [55698800]
 09   99,9 [0014C1F1] [136CD0CB]
 10   99,9 [FEAE0043] [36946E91]
 11   99,9 [055CC4AB] [7D9B5837]
 12   99,9 [FDDBA781] [BFBD655A]
 13   99,9 [0FFB4820] [79ED2E11]
 14   99,9 [75282200] [472C3A6E]
 15   99,9 [8FEE1593] [67436571]
 16   99,9 [D01BD323] [4E89AECA]
 17   99,9 [2D908526] [B20B2B9E]
 18   99,9 [542F3E21] [3F6BB6D8]
 19   99,8 [A8B6D945] [48FF6CF0]
 20   99,9 [CA54246A] [4A1F07FA]
 21   99,9 [334DA756] [551C0B92]
 22   99,9 [877A1899] [576FD69F]
 23   99,9 [C61EE214] [5864934D]
 
CD2 {63:20}

Ring Around Rosie (1957)
01. Don'cha Go 'Way Mad (2:09)
02. Moonlight Becomes You (3:13)
03. Love Letters (2:27)
04. I Could Write a Book (2:00)
05. I'm in the Mood for Love (3:31)
06. Coquette (2:18)
07. Together (2:43)
08. Everything Happens to Me (3:28)
09. (In My) Solitude (3:54)
10. What Is There to Say? (3:21)
11. I'm Glad There Is You (3:32)
12. How About You? (2:25)
Swing Around Rosie (1959)
13. Deed I Do (1:47)
14. You Took Advantage of Me (2:21)
15. Blue Moon (2:24)
16. Sing, You Sinners (2:13)
17. A Touch of the Blues (2:39)
18. Goody Goody (2:03)
19. Too Close for Comfort (2:38)
20. Do Nothin' Till You Hear from Me (2:46)
21. Moonlight Mississippi (2:34)
22. I Wish I Were in Love Again (2:20)
23. Sunday in Savannah (2:28)
24. This Can't Be Love (2:06)

 
Лог создания рипа
Exact Audio Copy V1.1 from 23. June 2015
EAC extraction logfile from 17. December 2017, 15:34
Rosemary Clooney ,  / Eight Classic Albums
Used drive  : PLEXTOR DVDR   PX-760A   Adapter: 1  ID: 1
Read mode               : Secure
Utilize accurate stream : Yes
Defeat audio cache      : Yes
Make use of C2 pointers : No
Read offset correction                      : 30
Overread into Lead-In and Lead-Out          : No
Fill up missing offset samples with silence : Yes
Delete leading and trailing silent blocks   : No
Null samples used in CRC calculations       : Yes
Used interface                              : Native Win32 interface for Win NT & 2000
Used output format              : User Defined Encoder
Selected bitrate                : 1024 kBit/s
Quality                         : High
Add ID3 tag                     : No
Command line compressor         : C:\Program Files (x86)\FLAC\flac.exe
Additional command line options : -5 -V -T "ARTIST=%artist%" -T "TITLE=%title%" -T "ALBUM=%albumtitle%" -T "DATE=%year%" -T "TRACKNUMBER=%tracknr%" -T "GENRE=%genre%" -T "COMMENT=[oStereo.ru]" %source%
TOC of the extracted CD
     Track |   Start  |  Length  | Start sector | End sector
    ---------------------------------------------------------
        1  |  0:00.00 |  2:08.56 |         0    |     9655
        2  |  2:08.56 |  3:12.43 |      9656    |    24098
        3  |  5:21.24 |  2:26.66 |     24099    |    35114
        4  |  7:48.15 |  1:59.39 |     35115    |    44078
        5  |  9:47.54 |  3:30.19 |     44079    |    59847
        6  | 13:17.73 |  2:17.44 |     59848    |    70166
        7  | 15:35.42 |  2:42.09 |     70167    |    82325
        8  | 18:17.51 |  3:27.07 |     82326    |    97857
        9  | 21:44.58 |  3:53.56 |     97858    |   115388
       10  | 25:38.39 |  3:20.60 |    115389    |   130448
       11  | 28:59.24 |  3:31.34 |    130449    |   146307
       12  | 32:30.58 |  2:25.06 |    146308    |   157188
       13  | 34:55.64 |  1:46.61 |    157189    |   165199
       14  | 36:42.50 |  2:21.01 |    165200    |   175775
       15  | 39:03.51 |  2:24.00 |    175776    |   186575
       16  | 41:27.51 |  2:12.51 |    186576    |   196526
       17  | 43:40.27 |  2:38.53 |    196527    |   208429
       18  | 46:19.05 |  2:02.68 |    208430    |   217647
       19  | 48:21.73 |  2:37.25 |    217648    |   229447
       20  | 50:59.23 |  2:45.63 |    229448    |   241885
       21  | 53:45.11 |  2:33.33 |    241886    |   253393
       22  | 56:18.44 |  2:19.42 |    253394    |   263860
       23  | 58:38.11 |  2:27.60 |    263861    |   274945
       24  | 61:05.71 |  2:06.08 |    274946    |   284403
Range status and errors
Selected range
     Filename D:\Rosemary Clooney - 8 Classic Albums - CD2 - RGM.wav
     Peak level 99.9 %
     Extraction speed 1.2 X
     Range quality 100.0 %
     Copy CRC 9E2DB8F7
     Copy OK
No errors occurred
AccurateRip summary
Track  1  accurately ripped (confidence 2)  [BD0AE42E]  (AR v2)
Track  2  accurately ripped (confidence 2)  [53393488]  (AR v2)
Track  3  accurately ripped (confidence 2)  [1938943B]  (AR v2)
Track  4  accurately ripped (confidence 2)  [2412693C]  (AR v2)
Track  5  accurately ripped (confidence 2)  [A8EA7A3F]  (AR v2)
Track  6  accurately ripped (confidence 2)  [D70414A0]  (AR v2)
Track  7  accurately ripped (confidence 2)  [C3EACDC0]  (AR v2)
Track  8  accurately ripped (confidence 2)  [AFD8C9AF]  (AR v2)
Track  9  accurately ripped (confidence 2)  [02F0242A]  (AR v2)
Track 10  accurately ripped (confidence 2)  [11789F0D]  (AR v2)
Track 11  accurately ripped (confidence 2)  [09D520E0]  (AR v2)
Track 12  accurately ripped (confidence 2)  [81AA8953]  (AR v2)
Track 13  accurately ripped (confidence 2)  [B3C8EB7E]  (AR v2)
Track 14  accurately ripped (confidence 2)  [038253BB]  (AR v2)
Track 15  accurately ripped (confidence 2)  [3F2393DA]  (AR v2)
Track 16  accurately ripped (confidence 2)  [59E1A5FC]  (AR v2)
Track 17  accurately ripped (confidence 2)  [5177D14F]  (AR v2)
Track 18  accurately ripped (confidence 2)  [116B2305]  (AR v2)
Track 19  accurately ripped (confidence 2)  [9641B0D7]  (AR v2)
Track 20  accurately ripped (confidence 2)  [A3923609]  (AR v2)
Track 21  accurately ripped (confidence 2)  [9A9708DE]  (AR v2)
Track 22  accurately ripped (confidence 2)  [5A4B69B9]  (AR v2)
Track 23  accurately ripped (confidence 2)  [10EB4B53]  (AR v2)
Track 24  accurately ripped (confidence 2)  [8C363AD2]  (AR v2)
All tracks accurately ripped
End of status report
==== Log checksum 1E1F635FC1FE7ED45350E02D54CFB3670111723A7B194FBC9AD8D0D594BA4C18 ====
 
Содержание индексной карты (.CUE)
REM GENRE Jazz
REM DATE 2013
REM DISCID 520ED018
REM COMMENT "ExactAudioCopy v1.1"
PERFORMER "Rosemary Clooney"
TITLE "Eight Classic Albums CD2"
FILE "Rosemary Clooney - Eight Classic Albums CD2.wav" WAVE
  TRACK 01 AUDIO
    TITLE "Don'cha Go 'Way Mad"
    PERFORMER "Rosemary Clooney"
    INDEX 01 00:00:00
  TRACK 02 AUDIO
    TITLE "Moonlight Becomes You"
    PERFORMER "Rosemary Clooney"
    INDEX 01 02:08:56
  TRACK 03 AUDIO
    TITLE "Love Letters"
    PERFORMER "Rosemary Clooney"
    INDEX 01 05:21:24
  TRACK 04 AUDIO
    TITLE "I Could Write a Book"
    PERFORMER "Rosemary Clooney"
    INDEX 01 07:48:15
  TRACK 05 AUDIO
    TITLE "I'm in the Mood for Love"
    PERFORMER "Rosemary Clooney"
    INDEX 01 09:47:54
  TRACK 06 AUDIO
    TITLE "Coquette"
    PERFORMER "Rosemary Clooney"
    INDEX 01 13:17:73
  TRACK 07 AUDIO
    TITLE "Together"
    PERFORMER "Rosemary Clooney"
    INDEX 01 15:35:42
  TRACK 08 AUDIO
    TITLE "Everything Happens to Me"
    PERFORMER "Rosemary Clooney"
    INDEX 01 18:17:51
  TRACK 09 AUDIO
    TITLE "(In My) Solitude"
    PERFORMER "Rosemary Clooney"
    INDEX 01 21:44:58
  TRACK 10 AUDIO
    TITLE "What Is There to Say?"
    PERFORMER "Rosemary Clooney"
    INDEX 01 25:38:39
  TRACK 11 AUDIO
    TITLE "I'm Glad There Is You"
    PERFORMER "Rosemary Clooney"
    INDEX 01 28:59:24
  TRACK 12 AUDIO
    TITLE "How About You?"
    PERFORMER "Rosemary Clooney"
    INDEX 01 32:30:58
  TRACK 13 AUDIO
    TITLE "Deed I Do"
    PERFORMER "Rosemary Clooney"
    INDEX 01 34:55:64
  TRACK 14 AUDIO
    TITLE "You Took Advantage of Me"
    PERFORMER "Rosemary Clooney"
    INDEX 01 36:42:50
  TRACK 15 AUDIO
    TITLE "Blue Moon"
    PERFORMER "Rosemary Clooney"
    INDEX 01 39:03:51
  TRACK 16 AUDIO
    TITLE "Sing, You Sinners"
    PERFORMER "Rosemary Clooney"
    INDEX 01 41:27:51
  TRACK 17 AUDIO
    TITLE "A Touch of the Blues"
    PERFORMER "Rosemary Clooney"
    INDEX 01 43:40:27
  TRACK 18 AUDIO
    TITLE "Goody Goody"
    PERFORMER "Rosemary Clooney"
    INDEX 01 46:19:05
  TRACK 19 AUDIO
    TITLE "Too Close for Comfort"
    PERFORMER "Rosemary Clooney"
    INDEX 01 48:21:73
  TRACK 20 AUDIO
    TITLE "Do Nothin' Till You Hear from Me"
    PERFORMER "Rosemary Clooney"
    INDEX 01 50:59:23
  TRACK 21 AUDIO
    TITLE "Moonlight Mississippi"
    PERFORMER "Rosemary Clooney"
    INDEX 01 53:45:11
  TRACK 22 AUDIO
    TITLE "I Wish I Were in Love Again"
    PERFORMER "Rosemary Clooney"
    INDEX 01 56:18:44
  TRACK 23 AUDIO
    TITLE "Sunday in Savannah"
    PERFORMER "Rosemary Clooney"
    INDEX 01 58:38:11
  TRACK 24 AUDIO
    TITLE "This Can't Be Love"
    PERFORMER "Rosemary Clooney"
    INDEX 01 61:05:71
 
Отчет CUETools
[CUETools log; Date: 06.11.2018 13:48:52; Version: 2.1.5]
[CTDB TOCID: _aIwYDTh4f3BxRmjT0uic.9hUW4-] found.
Track | CTDB Status
  1   | (19/19) Accurately ripped
  2   | (19/19) Accurately ripped
  3   | (19/19) Accurately ripped
  4   | (19/19) Accurately ripped
  5   | (19/19) Accurately ripped
  6   | (19/19) Accurately ripped
  7   | (19/19) Accurately ripped
  8   | (19/19) Accurately ripped
  9   | (19/19) Accurately ripped
 10   | (19/19) Accurately ripped
 11   | (19/19) Accurately ripped
 12   | (19/19) Accurately ripped
 13   | (19/19) Accurately ripped
 14   | (19/19) Accurately ripped
 15   | (19/19) Accurately ripped
 16   | (19/19) Accurately ripped
 17   | (19/19) Accurately ripped
 18   | (19/19) Accurately ripped
 19   | (19/19) Accurately ripped
 20   | (19/19) Accurately ripped
 21   | (19/19) Accurately ripped
 22   | (19/19) Accurately ripped
 23   | (19/19) Accurately ripped
 24   | (18/19) Accurately ripped
[AccurateRip ID: 00380233-03c79d26-520ed018] found.
Track   [  CRC   |   V2   ] Status
 01     [e4410b52|bd0ae42e] (00+03/14) Accurately ripped
 02     [30ebfd32|53393488] (00+03/14) Accurately ripped
 03     [20e86d90|1938943b] (00+03/14) Accurately ripped
 04     [15f4fb4a|2412693c] (00+03/14) Accurately ripped
 05     [fc85106e|a8ea7a3f] (00+03/14) Accurately ripped
 06     [96ec3e54|d70414a0] (00+03/14) Accurately ripped
 07     [4719a40c|c3eacdc0] (00+03/14) Accurately ripped
 08     [b32e08cf|afd8c9af] (00+03/14) Accurately ripped
 09     [7ad999db|02f0242a] (00+03/14) Accurately ripped
 10     [cc5b4e55|11789f0d] (00+03/14) Accurately ripped
 11     [7caf4736|09d520e0] (00+03/14) Accurately ripped
 12     [84aebc18|81aa8953] (00+03/14) Accurately ripped
 13     [9758fcb0|b3c8eb7e] (00+03/14) Accurately ripped
 14     [bc499f48|038253bb] (00+03/14) Accurately ripped
 15     [cada8510|3f2393da] (00+03/14) Accurately ripped
 16     [9bf393f9|59e1a5fc] (00+03/14) Accurately ripped
 17     [d7a79f57|5177d14f] (00+03/14) Accurately ripped
 18     [3334185b|116b2305] (00+03/14) Accurately ripped
 19     [4c87bcc3|9641b0d7] (00+03/12) Accurately ripped
 20     [cec3c32a|a3923609] (00+03/14) Accurately ripped
 21     [bcb150b5|9a9708de] (00+03/14) Accurately ripped
 22     [0c2d4678|5a4b69b9] (00+03/14) Accurately ripped
 23     [8d8c1f76|10eb4b53] (00+03/14) Accurately ripped
 24     [7fdfc27a|8c363ad2] (00+03/14) Accurately ripped
Offsetted by -48:
 01     [133a9cc2] (00/14) No match (V2 was not tested)
 02     [e9d31462] (00/14) No match (V2 was not tested)
 03     [7e328010] (00/14) No match (V2 was not tested)
 04     [bb2a206a] (00/14) No match (V2 was not tested)
 05     [a73816de] (00/14) No match (V2 was not tested)
 06     [ebb9ce64] (00/14) No match (V2 was not tested)
 07     [f4286f6c] (00/14) No match (V2 was not tested)
 08     [5f9fb0ef] (00/14) No match (V2 was not tested)
 09     [1d9864bb] (00/14) No match (V2 was not tested)
 10     [570ef765] (00/14) No match (V2 was not tested)
 11     [274e3256] (00/14) No match (V2 was not tested)
 12     [550c4008] (00/14) No match (V2 was not tested)
 13     [e8540790] (00/14) No match (V2 was not tested)
 14     [c45664b8] (00/14) No match (V2 was not tested)
 15     [5dcd4b50] (00/14) No match (V2 was not tested)
 16     [c17cb229] (00/14) No match (V2 was not tested)
 17     [c6cccf57] (00/14) No match (V2 was not tested)
 18     [9d926f5b] (00/14) No match (V2 was not tested)
 19     [a9294723] (00/12) No match
 20     [50d7fd4a] (00/14) No match (V2 was not tested)
 21     [e809c0f5] (00/14) No match (V2 was not tested)
 22     [18e9bfa8] (00/14) No match (V2 was not tested)
 23     [2f0cb066] (00/14) No match (V2 was not tested)
 24     [4373c81a] (00/14) No match (V2 was not tested)
Offsetted by -12:
 01     [2fff6fae] (00/14) No match (V2 was not tested)
 02     [9f25c2fe] (00/14) No match (V2 was not tested)
 03     [783af230] (00/14) No match (V2 was not tested)
 04     [3f424492] (00/14) No match (V2 was not tested)
 05     [e731d20a] (00/14) No match (V2 was not tested)
 06     [ec1fa258] (00/14) No match (V2 was not tested)
 07     [b25d56e4] (00/14) No match (V2 was not tested)
 08     [de4a72d7] (00/14) No match (V2 was not tested)
 09     [a3894c93] (00/14) No match (V2 was not tested)
 10     [ef083899] (00/14) No match (V2 was not tested)
 11     [275701fe] (00/14) No match (V2 was not tested)
 12     [78c61d14] (00/14) No match (V2 was not tested)
 13     [ab97bf68] (00/14) No match (V2 was not tested)
 14     [fe4cd0a4] (00/14) No match (V2 was not tested)
 15     [ef9736a0] (00/14) No match (V2 was not tested)
 16     [6555db85] (00/14) No match (V2 was not tested)
 17     [9370eb57] (00/14) No match (V2 was not tested)
 18     [0dcbae1b] (00/14) No match (V2 was not tested)
 19     [63b01f5b] (00/12) No match (V2 was not tested)
 20     [6f48d1b2] (00/14) No match (V2 was not tested)
 21     [47876cc5] (00/14) No match (V2 was not tested)
 22     [8f5c64c4] (00/14) No match (V2 was not tested)
 23     [f5ec43b2] (00/14) No match (V2 was not tested)
 24     [b0c4c3e2] (00/14) No match (V2 was not tested)
Track Peak [ CRC32  ] [W/O NULL] [  LOG   ]
 --   99,9 [9E2DB8F7] [2AEA9EFC]   CRC32
 01   97,7 [D73972BC] [B90CEE97]
 02   99,6 [57EDC80B] [2957F3FB]
 03   99,8 [B5603732] [6E28E97D]
 04   99,9 [EB1C0C1F] [C33726C4]
 05   99,9 [E86D63AF] [D795115C]
 06   99,9 [FB43C969] [67E91D95]
 07   99,8 [F7C000C5] [3F04EC1D]
 08   99,9 [CD3F9DDD] [744D41DE]
 09   99,9 [9B0C918B] [DB3EF2E9]
 10   99,9 [8A3E07E5] [117408F2]
 11   99,9 [7F03F3BD] [B6C02DE6]
 12   99,8 [5DD389C4] [43DD4902]
 13   99,2 [5D8475EC] [5E081A75]
 14   98,3 [57CD81E3] [07130950]
 15   98,6 [C75CA61A] [3C4CE688]
 16   99,1 [225A6E0F] [1C028ED9]
 17   99,1 [B76B5CD1] [BCE6003E]
 18   98,6 [7EA60915] [7A24C26C]
 19   98,4 [D2F66A39] [5EE6B1F6]
 20   98,8 [16952B29] [BA9702DA]
 21   99,9 [CBC43C56] [633EC7E9]
 22   98,6 [547E9A73] [4C1C4409]
 23   99,9 [910F1279] [CE0D7177]
 24   99,9 [4F466FF9] [0DF10E7E]
 
CD3 {64:20}

Fancy Meeting You Here (With Bing Crosby) (1958)
01. Fancy Meeting You Here (2:29)
02. On a Slow Boat to China (2:39)
03. I Can't Get Started (3:48)
04. Hindoustan (2:51)
05. It Happened in Monterey (2:42)
06. You Came a Long Way from St Louis/You Can Take the Boy Out of the Country (3:05)
07. Love Won't Let You Get Away (2:01)
08. How About You? (3:12)
09. Brazil/Here We Are (Face to Face Again) (3:31)
10. Isle of Capri (2:39)
11. Day "Si Si" (Para Vigo Me Vay) (2:22)
12. Calcutta (2:53)
13. Love Won't Let You Get Away (3:36)
A Touch of Tabasco (With Perez Prado) (1959)
14. Corazon de Melon (2:03)
15. Like a Woman (2:03)
16. I Only Have Eyes for You (2:08)
17. Magic Is the Moonlight (2:37)
18. In a Little Spanish Town (2:05)
19. Sway (2:39)
20. Mack the Knife (2:00)
21. Bali Ha'i (2:27)
22. You Do Something to Me (1:33)
23. Cu-Cu-Rru-Cu-Cu Paloma (2:33)
24. I Got Plenty o' Nuttin' (2:12)
25. Adios (2:12)

 
Лог создания рипа
Exact Audio Copy V1.1 from 23. June 2015
EAC extraction logfile from 17. December 2017, 16:35
Rosemary Clooney ,  / Eight Classic Albums
Used drive  : PLEXTOR DVDR   PX-760A   Adapter: 1  ID: 1
Read mode               : Secure
Utilize accurate stream : Yes
Defeat audio cache      : Yes
Make use of C2 pointers : No
Read offset correction                      : 30
Overread into Lead-In and Lead-Out          : No
Fill up missing offset samples with silence : Yes
Delete leading and trailing silent blocks   : No
Null samples used in CRC calculations       : Yes
Used interface                              : Native Win32 interface for Win NT & 2000
Used output format              : User Defined Encoder
Selected bitrate                : 1024 kBit/s
Quality                         : High
Add ID3 tag                     : No
Command line compressor         : C:\Program Files (x86)\FLAC\flac.exe
Additional command line options : -5 -V -T "ARTIST=%artist%" -T "TITLE=%title%" -T "ALBUM=%albumtitle%" -T "DATE=%year%" -T "TRACKNUMBER=%tracknr%" -T "GENRE=%genre%" -T "COMMENT=[oStereo.ru]" %source%
TOC of the extracted CD
     Track |   Start  |  Length  | Start sector | End sector
    ---------------------------------------------------------
        1  |  0:00.00 |  2:28.31 |         0    |    11130
        2  |  2:28.31 |  2:38.54 |     11131    |    23034
        3  |  5:07.10 |  3:47.67 |     23035    |    40126
        4  |  8:55.02 |  2:50.50 |     40127    |    52926
        5  | 11:45.52 |  2:41.71 |     52927    |    65072
        6  | 14:27.48 |  3:04.72 |     65073    |    78944
        7  | 17:32.45 |  2:00.64 |     78945    |    88008
        8  | 19:33.34 |  3:11.46 |     88009    |   102379
        9  | 22:45.05 |  3:30.68 |    102380    |   118197
       10  | 26:15.73 |  2:38.54 |    118198    |   130101
       11  | 28:54.52 |  2:21.13 |    130102    |   140689
       12  | 31:15.65 |  2:53.02 |    140690    |   153666
       13  | 34:08.67 |  3:35.46 |    153667    |   169837
       14  | 37:44.38 |  2:02.23 |    169838    |   179010
       15  | 39:46.61 |  2:02.52 |    179011    |   188212
       16  | 41:49.38 |  2:08.06 |    188213    |   197818
       17  | 43:57.44 |  2:36.20 |    197819    |   209538
       18  | 46:33.64 |  2:04.21 |    209539    |   218859
       19  | 48:38.10 |  2:38.66 |    218860    |   230775
       20  | 51:17.01 |  1:59.17 |    230776    |   239717
       21  | 53:16.18 |  2:26.37 |    239718    |   250704
       22  | 55:42.55 |  1:32.36 |    250705    |   257640
       23  | 57:15.16 |  2:32.53 |    257641    |   269093
       24  | 59:47.69 |  2:11.38 |    269094    |   278956
       25  | 61:59.32 |  2:11.69 |    278957    |   288850
Range status and errors
Selected range
     Filename D:\Rosemary Clooney - 8 Classic Albums - CD3 - RGM.wav
     Peak level 100.0 %
     Extraction speed 1.2 X
     Range quality 100.0 %
     Copy CRC 01D11A7D
     Copy OK
No errors occurred
AccurateRip summary
Track  1  accurately ripped (confidence 2)  [3D2502DC]  (AR v2)
Track  2  accurately ripped (confidence 2)  [2241C32C]  (AR v2)
Track  3  accurately ripped (confidence 2)  [075CCBCA]  (AR v2)
Track  4  accurately ripped (confidence 2)  [F83C7327]  (AR v2)
Track  5  accurately ripped (confidence 2)  [142BA20E]  (AR v2)
Track  6  accurately ripped (confidence 2)  [D03B0659]  (AR v2)
Track  7  accurately ripped (confidence 2)  [90E789C4]  (AR v2)
Track  8  accurately ripped (confidence 2)  [B9232AAE]  (AR v2)
Track  9  accurately ripped (confidence 2)  [3F9DAA52]  (AR v2)
Track 10  accurately ripped (confidence 2)  [DE78DB51]  (AR v2)
Track 11  accurately ripped (confidence 2)  [1267907F]  (AR v2)
Track 12  accurately ripped (confidence 2)  [B97A6CE1]  (AR v2)
Track 13  accurately ripped (confidence 2)  [B959C9A0]  (AR v2)
Track 14  accurately ripped (confidence 2)  [08930C27]  (AR v2)
Track 15  accurately ripped (confidence 2)  [1657A300]  (AR v2)
Track 16  accurately ripped (confidence 2)  [263AFAB4]  (AR v2)
Track 17  accurately ripped (confidence 2)  [75E1D721]  (AR v2)
Track 18  accurately ripped (confidence 2)  [7BC5E1AE]  (AR v2)
Track 19  accurately ripped (confidence 2)  [F7AAC890]  (AR v2)
Track 20  accurately ripped (confidence 2)  [9C2551E6]  (AR v2)
Track 21  accurately ripped (confidence 2)  [0677B429]  (AR v2)
Track 22  accurately ripped (confidence 2)  [FBA8DE4B]  (AR v2)
Track 23  accurately ripped (confidence 2)  [E66C7342]  (AR v2)
Track 24  accurately ripped (confidence 2)  [C407815B]  (AR v2)
Track 25  accurately ripped (confidence 2)  [F1832FA5]  (AR v2)
All tracks accurately ripped
End of status report
==== Log checksum 645036FD1D65DAC047DD817B5EB5058BC1BB6BFDE0FB26FA39AD7725AA6BC4C6 ====
 
Содержание индексной карты (.CUE)
REM GENRE Jazz
REM DATE 2013
REM DISCID 880F0B19
REM COMMENT "ExactAudioCopy v1.1"
PERFORMER "Rosemary Clooney"
TITLE "Eight Classic Albums CD3"
FILE "Rosemary Clooney - Eight Classic Albums CD3.wav" WAVE
  TRACK 01 AUDIO
    TITLE "Fancy Meeting You Here"
    PERFORMER "Rosemary Clooney"
    INDEX 01 00:00:00
  TRACK 02 AUDIO
    TITLE "On a Slow Boat to China"
    PERFORMER "Rosemary Clooney"
    INDEX 01 02:28:31
  TRACK 03 AUDIO
    TITLE "I Can't Get Started"
    PERFORMER "Rosemary Clooney"
    INDEX 01 05:07:10
  TRACK 04 AUDIO
    TITLE "Hindoustan"
    PERFORMER "Rosemary Clooney"
    INDEX 01 08:55:02
  TRACK 05 AUDIO
    TITLE "It Happened in Monterey"
    PERFORMER "Rosemary Clooney"
    INDEX 01 11:45:52
  TRACK 06 AUDIO
    TITLE "You Came a Long Way from St Louis/You Can Take the Boy Out of the Country"
    PERFORMER "Rosemary Clooney"
    INDEX 01 14:27:48
  TRACK 07 AUDIO
    TITLE "Love Won't Let You Get Away"
    PERFORMER "Rosemary Clooney"
    INDEX 01 17:32:45
  TRACK 08 AUDIO
    TITLE "How About You?"
    PERFORMER "Rosemary Clooney"
    INDEX 01 19:33:34
  TRACK 09 AUDIO
    TITLE "Brazil/Here We Are (Face to Face Again)"
    PERFORMER "Rosemary Clooney"
    INDEX 01 22:45:05
  TRACK 10 AUDIO
    TITLE "Isle of Capri"
    PERFORMER "Rosemary Clooney"
    INDEX 01 26:15:73
  TRACK 11 AUDIO
    TITLE "Day 'Si Si' (Para Vigo Me Vay)"
    PERFORMER "Rosemary Clooney"
    INDEX 01 28:54:52
  TRACK 12 AUDIO
    TITLE "Calcutta"
    PERFORMER "Rosemary Clooney"
    INDEX 01 31:15:65
  TRACK 13 AUDIO
    TITLE "Love Won't Let You Get Away"
    PERFORMER "Rosemary Clooney"
    INDEX 01 34:08:67
  TRACK 14 AUDIO
    TITLE "Corazon de Melon"
    PERFORMER "Rosemary Clooney"
    INDEX 01 37:44:38
  TRACK 15 AUDIO
    TITLE "Like a Woman"
    PERFORMER "Rosemary Clooney"
    INDEX 01 39:46:61
  TRACK 16 AUDIO
    TITLE "I Only Have Eyes for You"
    PERFORMER "Rosemary Clooney"
    INDEX 01 41:49:38
  TRACK 17 AUDIO
    TITLE "Magic Is the Moonlight"
    PERFORMER "Rosemary Clooney"
    INDEX 01 43:57:44
  TRACK 18 AUDIO
    TITLE "In a Little Spanish Town"
    PERFORMER "Rosemary Clooney"
    INDEX 01 46:33:64
  TRACK 19 AUDIO
    TITLE "Sway"
    PERFORMER "Rosemary Clooney"
    INDEX 01 48:38:10
  TRACK 20 AUDIO
    TITLE "Mack the Knife"
    PERFORMER "Rosemary Clooney"
    INDEX 01 51:17:01
  TRACK 21 AUDIO
    TITLE "Bali Ha'i"
    PERFORMER "Rosemary Clooney"
    INDEX 01 53:16:18
  TRACK 22 AUDIO
    TITLE "You Do Something to Me"
    PERFORMER "Rosemary Clooney"
    INDEX 01 55:42:55
  TRACK 23 AUDIO
    TITLE "Cu-Cu-Rru-Cu-Cu Paloma"
    PERFORMER "Rosemary Clooney"
    INDEX 01 57:15:16
  TRACK 24 AUDIO
    TITLE "I Got Plenty o' Nuttin'"
    PERFORMER "Rosemary Clooney"
    INDEX 01 59:47:69
  TRACK 25 AUDIO
    TITLE "Adios"
    PERFORMER "Rosemary Clooney"
    INDEX 01 61:59:32
 
Отчет CUETools
[CUETools log; Date: 06.11.2018 13:49:02; Version: 2.1.5]
[CTDB TOCID: F0o6.YBjuuNb4LW7qsEA32WzG7g-] found.
Track | CTDB Status
  1   | (18/18) Accurately ripped
  2   | (18/18) Accurately ripped
  3   | (18/18) Accurately ripped
  4   | (18/18) Accurately ripped
  5   | (18/18) Accurately ripped
  6   | (18/18) Accurately ripped
  7   | (18/18) Accurately ripped
  8   | (18/18) Accurately ripped
  9   | (18/18) Accurately ripped
 10   | (18/18) Accurately ripped
 11   | (18/18) Accurately ripped
 12   | (18/18) Accurately ripped
 13   | (18/18) Accurately ripped
 14   | (18/18) Accurately ripped
 15   | (18/18) Accurately ripped
 16   | (18/18) Accurately ripped
 17   | (18/18) Accurately ripped
 18   | (18/18) Accurately ripped
 19   | (18/18) Accurately ripped
 20   | (18/18) Accurately ripped
 21   | (18/18) Accurately ripped
 22   | (18/18) Accurately ripped
 23   | (18/18) Accurately ripped
 24   | (18/18) Accurately ripped
 25   | (18/18) Accurately ripped
[AccurateRip ID: 003cc7ca-04381619-880f0b19] found.
Track   [  CRC   |   V2   ] Status
 01     [9d8e8245|3d2502dc] (00+03/13) Accurately ripped
 02     [b110924a|2241c32c] (00+03/13) Accurately ripped
 03     [17df74ee|075ccbca] (00+03/10) Accurately ripped
 04     [33eddfe0|f83c7327] (00+03/10) Accurately ripped
 05     [b54629e4|142ba20e] (00+03/11) Accurately ripped
 06     [f1b18dee|d03b0659] (00+03/10) Accurately ripped
 07     [be9cf432|90e789c4] (00+03/12) Accurately ripped
 08     [27946cfc|b9232aae] (00+03/12) Accurately ripped
 09     [8c1adf03|3f9daa52] (00+03/12) Accurately ripped
 10     [10f8b1b8|de78db51] (00+03/12) Accurately ripped
 11     [e5a80481|1267907f] (00+03/12) Accurately ripped
 12     [564c7be4|b97a6ce1] (00+03/12) Accurately ripped
 13     [69b8ac87|b959c9a0] (00+03/10) Accurately ripped
 14     [9134a38f|08930c27] (00+03/11) Accurately ripped
 15     [be698783|1657a300] (00+03/11) Accurately ripped
 16     [3cdec08f|263afab4] (00+03/12) Accurately ripped
 17     [89277bab|75e1d721] (00+03/11) Accurately ripped
 18     [2639288b|7bc5e1ae] (00+03/11) Accurately ripped
 19     [45bc46e4|f7aac890] (00+03/10) Accurately ripped
 20     [89ee7909|9c2551e6] (00+03/10) Accurately ripped
 21     [4679e0e5|0677b429] (00+03/11) Accurately ripped
 22     [e2a401bf|fba8de4b] (00+03/11) Accurately ripped
 23     [ee61db7b|e66c7342] (00+03/11) Accurately ripped
 24     [6a58bfb4|c407815b] (00+03/11) Accurately ripped
 25     [d22c400e|f1832fa5] (00+03/09) Accurately ripped
Offsetted by -48:
 01     [b42910f5] (00/13) No match (V2 was not tested)
 02     [e29f098a] (00/13) No match (V2 was not tested)
 03     [737a0a0e] (00/10) No match (V2 was not tested)
 04     [2530cec0] (00/10) No match (V2 was not tested)
 05     [1544ba64] (00/11) No match (V2 was not tested)
 06     [629d3dee] (00/10) No match (V2 was not tested)
 07     [8619ffc2] (00/12) No match (V2 was not tested)
 08     [7834fd4c] (00/12) No match (V2 was not tested)
 09     [0f06bc43] (00/12) No match (V2 was not tested)
 10     [b72fb4b8] (00/12) No match (V2 was not tested)
 11     [b0e29751] (00/12) No match (V2 was not tested)
 12     [fc0f55d4] (00/12) No match (V2 was not tested)
 13     [7ace2b77] (00/10) No match (V2 was not tested)
 14     [f241762f] (00/11) No match (V2 was not tested)
 15     [08aa20e3] (00/11) No match (V2 was not tested)
 16     [a5a3f32f] (00/12) No match (V2 was not tested)
 17     [e3532dcb] (00/11) No match (V2 was not tested)
 18     [11f6856b] (00/11) No match (V2 was not tested)
 19     [70539864] (00/10) No match (V2 was not tested)
 20     [72ba83a9] (00/10) No match (V2 was not tested)
 21     [990120d5] (00/11) No match (V2 was not tested)
 22     [600748af] (00/11) No match (V2 was not tested)
 23     [bd6d941b] (00/11) No match (V2 was not tested)
 24     [d91a8874] (00/11) No match (V2 was not tested)
 25     [be11acce] (00/09) No match (V2 was not tested)
Offsetted by -12:
 01     [233525f1] (00/13) No match (V2 was not tested)
 02     [fd74301a] (00/13) No match (V2 was not tested)
 03     [eec61a36] (00/10) No match (V2 was not tested)
 04     [f03e9b98] (00/10) No match (V2 was not tested)
 05     [cd45ce04] (00/11) No match (V2 was not tested)
 06     [4dec79ee] (00/10) No match (V2 was not tested)
 07     [b07c3716] (00/12) No match (V2 was not tested)
 08     [fbbc9110] (00/12) No match (V2 was not tested)
 09     [2cd5d653] (00/12) No match (V2 was not tested)
 10     [fa867278] (00/12) No match (V2 was not tested)
 11     [9876a935] (00/12) No match (V2 was not tested)
 12     [bfbd3260] (00/12) No match (V2 was not tested)
 13     [2dfe0c43] (00/10) No match (V2 was not tested)
 14     [2977d837] (00/11) No match (V2 was not tested)
 15     [90f9addb] (00/11) No match (V2 was not tested)
 16     [57100d37] (00/12) No match (V2 was not tested)
 17     [5fb26833] (00/11) No match (V2 was not tested)
 18     [a1287fc3] (00/11) No match (V2 was not tested)
 19     [10621b44] (00/10) No match (V2 was not tested)
 20     [44217bb1] (00/10) No match (V2 was not tested)
 21     [db1bb0e1] (00/11) No match (V2 was not tested)
 22     [01fcd37b] (00/11) No match (V2 was not tested)
 23     [2224c9a3] (00/11) No match (V2 was not tested)
 24     [c60931e4] (00/11) No match (V2 was not tested)
 25     [4d259b3e] (00/09) No match (V2 was not tested)
Track Peak [ CRC32  ] [W/O NULL] [  LOG   ]
 --  100,0 [01D11A7D] [795DB599]   CRC32
 01   99,9 [CC1D0C38] [5254A3E7]
 02   99,9 [62C123A8] [22F497EB]
 03   99,9 [6725668E] [EA8FB0B5]
 04   99,9 [F5681ED4] [4D940895]
 05   99,9 [BCABE870] [774EDAD8]
 06   99,8 [FDEE317E] [192F952A]
 07   99,7 [3FB0F2A7] [996B5844]
 08   99,9 [8C13A347] [EF94A4D6]
 09   99,9 [AB8AB808] [FC822085]
 10   99,8 [F3580730] [E8F46514]
 11   99,9 [75D4017D] [1BB8AAFF]
 12   99,8 [0684C837] [1D42197D]
 13   99,9 [96568023] [746844B9]
 14  100,0 [27C463E6] [5570B664]
 15   99,9 [F03FBFA5] [7157B740]
 16   99,8 [CFA8F825] [A194B425]
 17   99,9 [C2D2E4C1] [883E1D8C]
 18   99,8 [A3DA0D29] [5BE2340F]
 19   99,9 [23DF1210] [D1DB021D]
 20   99,8 [7C87B91F] [517D372F]
 21   99,9 [3F0E9D1E] [1BCB8967]
 22   99,8 [A8CB0D32] [E0ED1979]
 23   99,9 [65EEE91E] [7862FEC2]
 24   99,9 [8ED5A395] [4FDAFCB6]
 25   98,2 [4A2C89AE] [6A4AAC10]
 
CD4 {60:59}

Clap Hands! Here Comes Rosie (1960)
01. Clap Hands! Here Comes Rosie/Everything's Coming Up Rosie (2:16)
02. Give Me the Simple Life (2:32)
03. Bye Bye Blackbird (2:41)
04. Aren't You Glad You're You (2:15)
05. You Got (2:42)
06. Too Marvelous for Words (2:09)
07. Something's Gotta Give (2:18)
08. Hooray for Love (2:24)
09. Mean to Me (3:33)
10. Oh, What a Beautiful Mornin' (2:12)
11. It Could Happen to You (2:29)
12. Makin' Whoopee (3:13)
Rosie Solves the Swingin' Riddle (1961)
13. Get Me to the Church on Time (2:11)
14. Angry (2:22)
15. I Get Along Without You Very Well (2:41)
16. How Am I to Know? (2:49)
17. You Took Advantage of Me (2:57)
18. April in Paris (2:37)
19. I Ain't Got Nobody (And Nobody Cares for Me) (2:52)
20. Some of These Days (2:14)
21. By Myself (2:28)
22. Shine on Harvest Moon (2:17)
23. Cabin in the Sky (2:32)
24. Limehouse Blues (2:15)

 
Лог создания рипа
Exact Audio Copy V1.1 from 23. June 2015
EAC extraction logfile from 17. December 2017, 17:46
Rosemary Clooney ,  / Eight Classic Albums
Used drive  : PLEXTOR DVDR   PX-760A   Adapter: 1  ID: 1
Read mode               : Secure
Utilize accurate stream : Yes
Defeat audio cache      : Yes
Make use of C2 pointers : No
Read offset correction                      : 30
Overread into Lead-In and Lead-Out          : No
Fill up missing offset samples with silence : Yes
Delete leading and trailing silent blocks   : No
Null samples used in CRC calculations       : Yes
Used interface                              : Native Win32 interface for Win NT & 2000
Used output format              : User Defined Encoder
Selected bitrate                : 1024 kBit/s
Quality                         : High
Add ID3 tag                     : No
Command line compressor         : C:\Program Files (x86)\FLAC\flac.exe
Additional command line options : -5 -V -T "ARTIST=%artist%" -T "TITLE=%title%" -T "ALBUM=%albumtitle%" -T "DATE=%year%" -T "TRACKNUMBER=%tracknr%" -T "GENRE=%genre%" -T "COMMENT=[oStereo.ru]" %source%
TOC of the extracted CD
     Track |   Start  |  Length  | Start sector | End sector
    ---------------------------------------------------------
        1  |  0:00.00 |  2:16.11 |         0    |    10210
        2  |  2:16.11 |  2:31.15 |     10211    |    21550
        3  |  4:47.26 |  2:40.21 |     21551    |    33571
        4  |  7:27.47 |  2:14.26 |     33572    |    43647
        5  |  9:41.73 |  2:41.37 |     43648    |    55759
        6  | 12:23.35 |  2:08.21 |     55760    |    65380
        7  | 14:31.56 |  2:17.53 |     65381    |    75708
        8  | 16:49.34 |  2:23.23 |     75709    |    86456
        9  | 19:12.57 |  3:32.66 |     86457    |   102422
       10  | 22:45.48 |  2:11.73 |    102423    |   112320
       11  | 24:57.46 |  2:28.10 |    112321    |   123430
       12  | 27:25.56 |  3:12.63 |    123431    |   137893
       13  | 30:38.44 |  2:10.57 |    137894    |   147700
       14  | 32:49.26 |  2:21.74 |    147701    |   158349
       15  | 35:11.25 |  2:40.45 |    158350    |   170394
       16  | 37:51.70 |  2:48.26 |    170395    |   183020
       17  | 40:40.21 |  2:56.05 |    183021    |   196225
       18  | 43:36.26 |  2:36.50 |    196226    |   207975
       19  | 46:13.01 |  2:51.06 |    207976    |   220806
       20  | 49:04.07 |  2:13.31 |    220807    |   230812
       21  | 51:17.38 |  2:27.60 |    230813    |   241897
       22  | 53:45.23 |  2:16.68 |    241898    |   252165
       23  | 56:02.16 |  2:31.73 |    252166    |   263563
       24  | 58:34.14 |  2:14.28 |    263564    |   273641
Range status and errors
Selected range
     Filename D:\Rosemary Clooney - 8 Classic Albums - CD4 - RGM.wav
     Peak level 99.9 %
     Extraction speed 1.2 X
     Range quality 100.0 %
     Copy CRC B1ABC2F3
     Copy OK
No errors occurred
AccurateRip summary
Track  1  accurately ripped (confidence 2)  [A576CAB0]  (AR v2)
Track  2  accurately ripped (confidence 2)  [9F68D296]  (AR v2)
Track  3  accurately ripped (confidence 2)  [5D7659F4]  (AR v2)
Track  4  accurately ripped (confidence 2)  [CC0F13CA]  (AR v2)
Track  5  accurately ripped (confidence 2)  [07DDC91D]  (AR v2)
Track  6  accurately ripped (confidence 2)  [B6D89249]  (AR v2)
Track  7  accurately ripped (confidence 2)  [76DF189A]  (AR v2)
Track  8  accurately ripped (confidence 2)  [E123218D]  (AR v2)
Track  9  accurately ripped (confidence 2)  [DCE93302]  (AR v2)
Track 10  accurately ripped (confidence 2)  [1433D586]  (AR v2)
Track 11  accurately ripped (confidence 2)  [8C04731C]  (AR v2)
Track 12  accurately ripped (confidence 2)  [B3410FC1]  (AR v2)
Track 13  accurately ripped (confidence 2)  [D3B3D467]  (AR v2)
Track 14  accurately ripped (confidence 2)  [B8F2E7AF]  (AR v2)
Track 15  accurately ripped (confidence 2)  [FCF62A24]  (AR v2)
Track 16  accurately ripped (confidence 2)  [617B7735]  (AR v2)
Track 17  accurately ripped (confidence 2)  [BFA0AE3B]  (AR v2)
Track 18  accurately ripped (confidence 2)  [6FB0E2E7]  (AR v2)
Track 19  accurately ripped (confidence 2)  [A3058FA1]  (AR v2)
Track 20  accurately ripped (confidence 2)  [2B99F6E1]  (AR v2)
Track 21  accurately ripped (confidence 2)  [5CE0EA1C]  (AR v2)
Track 22  accurately ripped (confidence 2)  [EA32EBE7]  (AR v2)
Track 23  accurately ripped (confidence 2)  [5309788B]  (AR v2)
Track 24  accurately ripped (confidence 2)  [93BBBBFB]  (AR v2)
All tracks accurately ripped
End of status report
==== Log checksum D03194B1A2C9C3829F0D3F75D100C23F31211DAE904FE053FC0C9DEA7CA86898 ====
 
Содержание индексной карты (.CUE)
REM GENRE Jazz
REM DATE 2013
REM DISCID 680E4018
REM COMMENT "ExactAudioCopy v1.1"
PERFORMER "Rosemary Clooney"
TITLE "Eight Classic Albums CD4"
FILE "Rosemary Clooney - Eight Classic Albums CD4.wav" WAVE
  TRACK 01 AUDIO
    TITLE "Clap Hands! Here Comes Rosie/Everything's Coming Up Rosie"
    PERFORMER "Rosemary Clooney"
    INDEX 01 00:00:00
  TRACK 02 AUDIO
    TITLE "Give Me the Simple Life"
    PERFORMER "Rosemary Clooney"
    INDEX 01 02:16:11
  TRACK 03 AUDIO
    TITLE "Bye Bye Blackbird"
    PERFORMER "Rosemary Clooney"
    INDEX 01 04:47:26
  TRACK 04 AUDIO
    TITLE "Aren't You Glad You're You"
    PERFORMER "Rosemary Clooney"
    INDEX 01 07:27:47
  TRACK 05 AUDIO
    TITLE "You Got"
    PERFORMER "Rosemary Clooney"
    INDEX 01 09:41:73
  TRACK 06 AUDIO
    TITLE "Too Marvelous for Words"
    PERFORMER "Rosemary Clooney"
    INDEX 01 12:23:35
  TRACK 07 AUDIO
    TITLE "Something's Gotta Give"
    PERFORMER "Rosemary Clooney"
    INDEX 01 14:31:56
  TRACK 08 AUDIO
    TITLE "Hooray for Love"
    PERFORMER "Rosemary Clooney"
    INDEX 01 16:49:34
  TRACK 09 AUDIO
    TITLE "Mean to Me"
    PERFORMER "Rosemary Clooney"
    INDEX 01 19:12:57
  TRACK 10 AUDIO
    TITLE "Oh, What a Beautiful Mornin'"
    PERFORMER "Rosemary Clooney"
    INDEX 01 22:45:48
  TRACK 11 AUDIO
    TITLE "It Could Happen to You"
    PERFORMER "Rosemary Clooney"
    INDEX 01 24:57:46
  TRACK 12 AUDIO
    TITLE "Makin' Whoopee"
    PERFORMER "Rosemary Clooney"
    INDEX 01 27:25:56
  TRACK 13 AUDIO
    TITLE "Get Me to the Church on Time"
    PERFORMER "Rosemary Clooney"
    INDEX 01 30:38:44
  TRACK 14 AUDIO
    TITLE "Angry"
    PERFORMER "Rosemary Clooney"
    INDEX 01 32:49:26
  TRACK 15 AUDIO
    TITLE "I Get Along Without You Very Well"
    PERFORMER "Rosemary Clooney"
    INDEX 01 35:11:25
  TRACK 16 AUDIO
    TITLE "How Am I to Know?"
    PERFORMER "Rosemary Clooney"
    INDEX 01 37:51:70
  TRACK 17 AUDIO
    TITLE "You Took Advantage of Me"
    PERFORMER "Rosemary Clooney"
    INDEX 01 40:40:21
  TRACK 18 AUDIO
    TITLE "April in Paris"
    PERFORMER "Rosemary Clooney"
    INDEX 01 43:36:26
  TRACK 19 AUDIO
    TITLE "I Ain't Got Nobody (And Nobody Cares for Me)"
    PERFORMER "Rosemary Clooney"
    INDEX 01 46:13:01
  TRACK 20 AUDIO
    TITLE "Some of These Days"
    PERFORMER "Rosemary Clooney"
    INDEX 01 49:04:07
  TRACK 21 AUDIO
    TITLE "By Myself"
    PERFORMER "Rosemary Clooney"
    INDEX 01 51:17:38
  TRACK 22 AUDIO
    TITLE "Shine on Harvest Moon"
    PERFORMER "Rosemary Clooney"
    INDEX 01 53:45:23
  TRACK 23 AUDIO
    TITLE "Cabin in the Sky"
    PERFORMER "Rosemary Clooney"
    INDEX 01 56:02:16
  TRACK 24 AUDIO
    TITLE "Limehouse Blues"
    PERFORMER "Rosemary Clooney"
    INDEX 01 58:34:14
 
Отчет CUETools
[CUETools log; Date: 06.11.2018 13:49:12; Version: 2.1.5]
[CTDB TOCID: mooxD4zRWkr3Ly.fhG8BwX2Byuw-] found.
Track | CTDB Status
  1   | (19/19) Accurately ripped
  2   | (19/19) Accurately ripped
  3   | (19/19) Accurately ripped
  4   | (19/19) Accurately ripped
  5   | (19/19) Accurately ripped
  6   | (19/19) Accurately ripped
  7   | (19/19) Accurately ripped
  8   | (19/19) Accurately ripped
  9   | (19/19) Accurately ripped
 10   | (19/19) Accurately ripped
 11   | (19/19) Accurately ripped
 12   | (19/19) Accurately ripped
 13   | (19/19) Accurately ripped
 14   | (19/19) Accurately ripped
 15   | (19/19) Accurately ripped
 16   | (19/19) Accurately ripped
 17   | (19/19) Accurately ripped
 18   | (19/19) Accurately ripped
 19   | (19/19) Accurately ripped
 20   | (19/19) Accurately ripped
 21   | (19/19) Accurately ripped
 22   | (19/19) Accurately ripped
 23   | (19/19) Accurately ripped
 24   | (19/19) Accurately ripped
[AccurateRip ID: 00341b85-038b54f1-680e4018] found.
Track   [  CRC   |   V2   ] Status
 01     [d6bcaf6b|a576cab0] (00+03/14) Accurately ripped
 02     [0b61c216|9f68d296] (00+03/14) Accurately ripped
 03     [dcedb2c1|5d7659f4] (00+03/14) Accurately ripped
 04     [69181e42|cc0f13ca] (00+03/14) Accurately ripped
 05     [e7042956|07ddc91d] (00+03/14) Accurately ripped
 06     [66e534fc|b6d89249] (00+03/14) Accurately ripped
 07     [7ab7b5b2|76df189a] (00+03/14) Accurately ripped
 08     [fe313531|e123218d] (00+03/14) Accurately ripped
 09     [4d238bd7|dce93302] (00+03/14) Accurately ripped
 10     [78ea9be0|1433d586] (00+03/14) Accurately ripped
 11     [31702f62|8c04731c] (00+03/14) Accurately ripped
 12     [aa0a1fd8|b3410fc1] (00+03/14) Accurately ripped
 13     [ebc40969|d3b3d467] (00+03/14) Accurately ripped
 14     [c3cd9f92|b8f2e7af] (00+03/14) Accurately ripped
 15     [c6df241e|fcf62a24] (00+03/14) Accurately ripped
 16     [7350bcc9|617b7735] (00+03/14) Accurately ripped
 17     [8da1ed18|bfa0ae3b] (00+03/14) Accurately ripped
 18     [d19eef2e|6fb0e2e7] (00+03/14) Accurately ripped
 19     [901b013b|a3058fa1] (00+03/14) Accurately ripped
 20     [7282dfb3|2b99f6e1] (00+03/14) Accurately ripped
 21     [54df16e7|5ce0ea1c] (00+03/14) Accurately ripped
 22     [e72aca2c|ea32ebe7] (00+03/14) Accurately ripped
 23     [e293382e|5309788b] (00+03/14) Accurately ripped
 24     [95a59a0a|93bbbbfb] (00+03/14) Accurately ripped
Offsetted by -48:
 01     [159ae99b] (00/14) No match (V2 was not tested)
 02     [fcc0f4c6] (00/14) No match (V2 was not tested)
 03     [36f87b11] (00/14) No match (V2 was not tested)
 04     [c821f5e2] (00/14) No match (V2 was not tested)
 05     [b96bb396] (00/14) No match (V2 was not tested)
 06     [9d2b802c] (00/14) No match (V2 was not tested)
 07     [b8f47a12] (00/14) No match (V2 was not tested)
 08     [b2fe9871] (00/14) No match (V2 was not tested)
 09     [b3b2b8c7] (00/14) No match (V2 was not tested)
 10     [8c113950] (00/14) No match (V2 was not tested)
 11     [b7fc0922] (00/14) No match (V2 was not tested)
 12     [f2a47bc8] (00/14) No match (V2 was not tested)
 13     [7fe06a59] (00/14) No match (V2 was not tested)
 14     [3db80822] (00/14) No match (V2 was not tested)
 15     [e82b0d4e] (00/14) No match (V2 was not tested)
 16     [7bccbf69] (00/14) No match (V2 was not tested)
 17     [759f4688] (00/14) No match (V2 was not tested)
 18     [978c5fee] (00/14) No match (V2 was not tested)
 19     [809627bb] (00/14) No match (V2 was not tested)
 20     [cd64cd03] (00/14) No match (V2 was not tested)
 21     [1b708a37] (00/14) No match (V2 was not tested)
 22     [7a5d7f3c] (00/14) No match (V2 was not tested)
 23     [ff09a72e] (00/14) No match (V2 was not tested)
 24     [075cabca] (00/14) No match (V2 was not tested)
Offsetted by -12:
 01     [e6743df7] (00/14) No match (V2 was not tested)
 02     [c7b98ec2] (00/14) No match (V2 was not tested)
 03     [337064d5] (00/14) No match (V2 was not tested)
 04     [80da942a] (00/14) No match (V2 was not tested)
 05     [5b9e0be6] (00/14) No match (V2 was not tested)
 06     [b476c7c8] (00/14) No match (V2 was not tested)
 07     [8a46e6ca] (00/14) No match (V2 was not tested)
 08     [ab648e01] (00/14) No match (V2 was not tested)
 09     [26c75713] (00/14) No match (V2 was not tested)
 10     [3db4433c] (00/14) No match (V2 was not tested)
 11     [531325d2] (00/14) No match (V2 was not tested)
 12     [7c30b6d4] (00/14) No match (V2 was not tested)
 13     [d0cb21a5] (00/14) No match (V2 was not tested)
 14     [224839b6] (00/14) No match (V2 was not tested)
 15     [0f321e6a] (00/14) No match (V2 was not tested)
 16     [f56fbd71] (00/14) No match (V2 was not tested)
 17     [c7a14374] (00/14) No match (V2 was not tested)
 18     [c31a4b5e] (00/14) No match (V2 was not tested)
 19     [0c39cadb] (00/14) No match (V2 was not tested)
 20     [493b5b07] (00/14) No match (V2 was not tested)
 21     [c68373bb] (00/14) No match (V2 was not tested)
 22     [4bf77770] (00/14) No match (V2 was not tested)
 23     [69b0d3ee] (00/14) No match (V2 was not tested)
 24     [b2135e7a] (00/14) No match (V2 was not tested)
Track Peak [ CRC32  ] [W/O NULL] [  LOG   ]
 --   99,9 [B1ABC2F3] [5C084A28]   CRC32
 01   99,8 [708CADFE] [C09CC9F2]
 02   99,9 [68250FA5] [C4410693]
 03   99,9 [FF47544E] [5B2A5648]
 04   99,9 [FF4DBEE3] [4044D345]
 05   99,9 [A34DFD14] [0DB41BF5]
 06   99,9 [086FF54D] [AA6E3A1F]
 07   99,8 [DD0CA745] [51DCAAA7]
 08   99,9 [36D36C84] [9C8CD5CF]
 09   99,9 [D897EECD] [1CE67B78]
 10   99,9 [35C4D2FD] [16C18140]
 11   99,8 [EE626C69] [4AC7CA59]
 12   99,8 [701EE5D5] [F6CC1E11]
 13   99,9 [59907DA0] [7420956E]
 14   99,9 [3FEA1F39] [07C501B3]
 15   99,9 [5FC110E1] [C73D5F5F]
 16   99,9 [032BB533] [FDD4FFEC]
 17   99,9 [47EE0B33] [E28F074B]
 18   99,9 [B3DADE6E] [9F1A490C]
 19   99,9 [3D0F9D77] [0A16468C]
 20   99,9 [28F8A143] [87988A7A]
 21   99,9 [84ECF14C] [AA2C35B0]
 22   99,8 [DBAC9E59] [4A7C25AD]
 23   99,9 [F94F74C3] [BF96348F]
 24   99,9 [A2709B94] [1D135E24]
Приватный:
Нет (DHT включён)
Размер:
1.39 Гб (1,489,279,217 байт) » файлов: 26
Участники:
4 раздают, 0 качают (4 участников всего)
Внешние участники:
3 раздают, 1 качают (4 участников всего) [ Обновить ]
15:21
22
Нет комментариев. Ваш будет первым!