Поиск

1954 Paul Bley Trio - Paul Bley (2019) {RevOla} [24-44.1]

1954 Paul Bley Trio - Paul Bley (2019) {RevOla} [24-44.1]
Дата записи диска:
3 февраля, 26 августа и 30 августа 1954
Место записи:
Fine Sound Studios, New York City, NY, USA
Издатель (лейбл):
Носитель:
WEB
Формат:
PCM
Тип рипа:
tracks
Контейнер:
FLAC (*.flac)
Количество каналов:
2.0
Разрядность/ЧД:
24/44,1
Битрейт аудио:
lossless
Время звучания:
00:41:51
Наличие сканов:
только обложка

Треклист:

01 - Topsy 02:46
02 - My Heart 02:43
03 - That Old Feeling 02:41
04 - There'll Never Be Another You 05:50
05 - Autumn Breeze 03:13
06 - I Want to Be Happy 02:22
07 - My Old Flame 03:30
08 - Time on My Hands 03:34
09 - Drum One 02:24
10 - This Can't Be Love 03:12
11 - My One and Only (What Am I Gonna Do) 06:47
12 - 52nd Street Theme 02:49

Состав:
  •     Paul Bley — piano
  •     Alan Levitt — drums
  •     Percy Heath (tracks 5 & 9), Peter Ind (tracks 1-4, 6-8 & 10-12) — bass
Доп. инфо:

Recorded at Fine Sound Studios in New York City on February 3 (tracks 5 & 9), August 26 (tracks 1-4 & 7) and August 20 (tracks 6, 8 & 10-12), 1954

Лог проверки качества
foobar2000 1.3.16 / Dynamic Range Meter 1.1.1
log date: 2019-03-24 04:02:11
--------------------------------------------------------------------------------
Analyzed: Paul Bley / Paul Bley (1954)
--------------------------------------------------------------------------------
DR         Peak         RMS     Duration Track
--------------------------------------------------------------------------------
DR11      -3.67 dB   -16.16 dB      2:46 01-Topsy
DR9       -4.25 dB   -15.56 dB      2:43 02-My Heart
DR11      -4.27 dB   -18.94 dB      2:42 03-That Old Feeling
DR12      -2.93 dB   -16.39 dB      5:51 04-There'll Never Be Another You
DR10      -5.18 dB   -17.34 dB      3:13 05-Autumn Breeze
DR11      -4.67 dB   -17.10 dB      2:22 06-I Want to Be Happy
DR11      -3.66 dB   -17.89 dB      3:31 07-My Old Flame
DR10      -5.93 dB   -17.45 dB      3:34 08-Time on My Hands
DR10      -3.87 dB   -16.90 dB      2:25 09-Drum One
DR10      -4.07 dB   -15.54 dB      3:13 10-This Can't Be Love
DR10      -4.76 dB   -16.64 dB      6:47 11-My One and Only (What Am I Gonna Do)
DR12      -3.74 dB   -17.32 dB      2:50 12-52nd Street Theme
--------------------------------------------------------------------------------
Number of tracks:  12
Official DR value: DR11
Samplerate:        44100 Hz
Channels:          2
Bits per sample:   24
Bitrate:           1179 kbps
Codec:             FLAC
================================================================================
По всем вопросам пишите личное сообщение пользователю M0p94ok.
23:28
220
Нет комментариев. Ваш будет первым!