Вы используете незарегистрированную версию компонента "Вкладки"!

Поиск

1954 Michel Legrand - I Love Paris (2019 Remastered) {Orange Amaro} [24-44,1]

1954 Michel Legrand - I Love Paris (2019 Remastered) {Orange Amaro} [24-44,1]
Место записи:
Paris, France
Носитель:
WEB
Формат:
PCM
Тип рипа:
tracks+.cue
Количество каналов:
2.0
Разрядность/ЧД:
24/44,1
Битрейт аудио:
lossless
Время звучания:
00:39:33
Наличие сканов:
web
Страна-производитель диска (релиза):
France
Релизёр (источник):
M0p94ok
Лог проверки качества
foobar2000 1.5.5 / Dynamic Range Meter 1.1.1
log date: 2020-10-07 14:58:33

--------------------------------------------------------------------------------
Analyzed: Michel Legrand / I Love Paris (Remastered)
--------------------------------------------------------------------------------

DR         Peak         RMS     Duration Track
--------------------------------------------------------------------------------
DR12      -4.22 dB   -20.25 dB      2:37 01-I Love Paris (Remastered)
DR11      -6.95 dB   -20.17 dB      2:29 02-Mademoiselle De Paris (Remastered)
DR10      -8.33 dB   -23.54 dB      1:48 03-Paris (Remastered)
DR12      -5.90 dB   -22.30 dB      3:31 04-Autumn Leaves (Les Feuilles Mortes) (Remastered)
DR11      -6.18 dB   -21.59 dB      1:09 05-Under The Bridges Of Paris (Sous Les Ponts De Paris) (Remastered)
DR12      -5.33 dB   -21.98 dB      4:30 06-La Seine (Remastered)
DR12      -6.36 dB   -22.85 dB      1:57 07-Paris In The Spring (Remastered)
DR12      -6.29 dB   -20.56 dB      2:11 08-Paris Canaille (Remastered)
DR13      -3.52 dB   -20.92 dB      3:38 09-April In Paris (Remastered)
DR11      -4.08 dB   -19.67 dB      2:08 10-A Paris (Remastered)
DR10      -4.23 dB   -18.10 dB      2:19 11-La Vie En Rose (Remastered)
DR11      -7.27 dB   -22.37 dB      2:26 12-Under Paris Skies (Sous Le Ciel De Paris) (Remastered)
DR12      -5.64 dB   -19.43 dB      1:34 13-Paris, Je T'Aime (Paris, Stay The Same) (Remastered)
DR11      -6.94 dB   -23.20 dB      3:40 14-The Song From 'Moulin Rouge' (Remastered)
DR15      -2.90 dB   -21.06 dB      2:47 15-The Last Time I Saw Paris (Remastered)
DR11      -4.84 dB   -19.21 dB      0:58 16-I Love Paris (Reprise) (Remastered)
--------------------------------------------------------------------------------

Number of tracks:  16
Official DR value: DR12

Samplerate:        44100 Hz
Channels:          2
Bits per sample:   24
Bitrate:           1070 kbps
Codec:             FLAC
================================================================================
Any questions - support@pro-jazz.com. Есть вопросы - support@pro-jazz.com
15:51
223
Нет комментариев. Ваш будет первым!