Поиск

1954 Louis Armstrong - Plays W.C. Handy (1987) {Columbia} [CD]

1954 Louis Armstrong - Plays W.C. Handy (1987) {Columbia} [CD]
Издатель (лейбл):
Треклист:
01. St. Louis Blues (8:58)
02. Yellow Dog Blues (4:18)
03. Loveless Love (4:35)
04. Aunt Hagar's Blues (5:00)
05. Louis Armstrong Monologue (0:46)
06. Long Gone (From Bowlin' Green) (4:17)
07. The Memphis Blues (Or, Mister Crump) (3:02)
08. Beale Street Blues (5:00)
09. Ole Miss (4:43)
10. Chantez Les Bas (Sing 'Em Low) (4:50)
11. Hesitating Blues (5:24)
12. Atlanta Blues (Make Me One Pallet On Your Floor) (4:35)
Состав:
  • Bass – Arvell Shaw
  • Clarinet – Barney Bigard
  • Drums – Barrett Deems
  • Liner Notes – Brian Peerless
  • Mixed By [Remixed Digitally] – Larry Keyes, Michael Brooks (2)
  • Orchestra – Louis Armstrong And His All-Stars
  • Piano – Billy Kyle
  • Producer – Michael Brooks (2)
  • Remastered By – Vlado Meller
  • Trombone – Trummy Young
  • Trumpet, Vocals – Louis Armstrong
  • Vocals – Velma Middleton (tracks: 1, 3, 6, 11)
Доп. инфо:

Год выпуска диска: 1986
Производитель диска: Columbia
Аудио кодек: FLAC
Тип рипа: tracks+.cue
Битрейт аудио: lossless
Продолжительность: 55:28

Лог создания рипа
Exact Audio Copy V0.99 prebeta 4 from 23. January 2008
EAC extraction logfile from 7. March 2009, 23:56
Louis Armstrong / Plays W.C. Handy
Used drive  : TSSTcorpCD/DVDW TS-L532M   Adapter: 1  ID: 1
Read mode               : Secure
Utilize accurate stream : Yes
Defeat audio cache      : Yes
Make use of C2 pointers : No
Read offset correction                      : 116
Overread into Lead-In and Lead-Out          : No
Fill up missing offset samples with silence : Yes
Delete leading and trailing silent blocks   : No
Null samples used in CRC calculations       : No
Used interface                              : Native Win32 interface for Win NT & 2000
Gap handling                                : Appended to previous track
Used output format              : User Defined Encoder
Selected bitrate                : 1024 kBit/s
Quality                         : High
Add ID3 tag                     : No
Command line compressor         : C:\Program Files\Exact Audio Copy\FLAC\FLAC.EXE
Additional command line options : -6 -V -T "ARTIST=%a" -T "TITLE=%t" -T "ALBUM=%g" -T "DATE=%y" -T "TRACKNUMBER=%n" -T "GENRE=%m" -T "COMMENT=%e" %s -o %d
TOC of the extracted CD
     Track |   Start  |  Length  | Start sector | End sector
    ---------------------------------------------------------
        1  |  0:00.00 |  8:57.50 |         0    |    40324
        2  |  8:57.50 |  4:18.20 |     40325    |    59694
        3  | 13:15.70 |  4:34.67 |     59695    |    80311
        4  | 17:50.62 |  5:00.23 |     80312    |   102834
        5  | 22:51.10 |  0:46.10 |    102835    |   106294
        6  | 23:37.20 |  4:16.42 |    106295    |   125536
        7  | 27:53.62 |  3:02.18 |    125537    |   139204
        8  | 30:56.05 |  5:00.25 |    139205    |   161729
        9  | 35:56.30 |  4:42.62 |    161730    |   182941
       10  | 40:39.17 |  4:50.35 |    182942    |   204726
       11  | 45:29.52 |  5:23.43 |    204727    |   228994
       12  | 50:53.20 |  4:34.47 |    228995    |   249591
Track  1
     Filename E:\Muzika\Louis Armstrong\Plays W.C. Handy\01. St. Louis Blues.wav
     Pre-gap length  0:00:02.00
     Peak level 98.1 %
     Track quality 100.0 %
     Test CRC 0FAE8E3C
     Copy CRC 0FAE8E3C
     Accurately ripped (confidence 1)  [399ABAD2]
     Copy OK
Track  2
     Filename E:\Muzika\Louis Armstrong\Plays W.C. Handy\02. Yellow Dog Blues.wav
     Peak level 100.0 %
     Track quality 100.0 %
     Test CRC 0D065A9E
     Copy CRC 0D065A9E
     Accurately ripped (confidence 1)  [10831EA7]
     Copy OK
Track  3
     Filename E:\Muzika\Louis Armstrong\Plays W.C. Handy\03. Loveless Love.wav
     Peak level 100.0 %
     Track quality 100.0 %
     Test CRC 8F83B9DD
     Copy CRC 8F83B9DD
     Accurately ripped (confidence 1)  [D166C4F7]
     Copy OK
Track  4
     Filename E:\Muzika\Louis Armstrong\Plays W.C. Handy\04. Aunt Hagar's Blues.wav
     Pre-gap length  0:00:01.50
     Peak level 100.0 %
     Track quality 100.0 %
     Test CRC 8F4ACDBE
     Copy CRC 8F4ACDBE
     Accurately ripped (confidence 1)  [F4F5827D]
     Copy OK
Track  5
     Filename E:\Muzika\Louis Armstrong\Plays W.C. Handy\05. Louis Armstrong Monologue.wav
     Pre-gap length  0:00:01.53
     Peak level 49.4 %
     Track quality 99.7 %
     Test CRC 59F0828B
     Copy CRC 59F0828B
     Accurately ripped (confidence 1)  [B0B6244F]
     Copy OK
Track  6
     Filename E:\Muzika\Louis Armstrong\Plays W.C. Handy\06. Long Gone.wav
     Peak level 89.1 %
     Track quality 100.0 %
     Test CRC B401FDDE
     Copy CRC B401FDDE
     Accurately ripped (confidence 1)  [DC0B7525]
     Copy OK
Track  7
     Filename E:\Muzika\Louis Armstrong\Plays W.C. Handy\07. Memphis Blues (Or, Mister Crump).wav
     Peak level 89.1 %
     Track quality 100.0 %
     Test CRC 62706E6C
     Copy CRC 62706E6C
     Accurately ripped (confidence 1)  [C218A5D8]
     Copy OK
Track  8
     Filename E:\Muzika\Louis Armstrong\Plays W.C. Handy\08. Beale Street Blues.wav
     Pre-gap length  0:00:01.55
     Peak level 87.0 %
     Track quality 100.0 %
     Test CRC 2F01E098
     Copy CRC 2F01E098
     Accurately ripped (confidence 1)  [3AA6A428]
     Copy OK
Track  9
     Filename E:\Muzika\Louis Armstrong\Plays W.C. Handy\09. Ole Miss.wav
     Pre-gap length  0:00:01.33
     Peak level 100.0 %
     Track quality 100.0 %
     Test CRC 1B2EE32F
     Copy CRC 1B2EE32F
     Accurately ripped (confidence 1)  [41AAAA7E]
     Copy OK
Track 10
     Filename E:\Muzika\Louis Armstrong\Plays W.C. Handy\10. Chantez-Les Bas (Sing 'em Low).wav
     Pre-gap length  0:00:01.40
     Peak level 100.0 %
     Track quality 100.0 %
     Test CRC 4221D6C1
     Copy CRC 4221D6C1
     Accurately ripped (confidence 1)  [8A5E0730]
     Copy OK
Track 11
     Filename E:\Muzika\Louis Armstrong\Plays W.C. Handy\11. Hesitating Blues.wav
     Pre-gap length  0:00:01.35
     Peak level 88.9 %
     Track quality 100.0 %
     Test CRC BC84E9E1
     Copy CRC BC84E9E1
     Accurately ripped (confidence 1)  [AE255DF6]
     Copy OK
Track 12
     Filename E:\Muzika\Louis Armstrong\Plays W.C. Handy\12. Atlanta Blues (Make Me One Pallet on Your Floor).wav
     Pre-gap length  0:00:01.50
     Peak level 72.6 %
     Track quality 99.9 %
     Test CRC DA2BB9A9
     Copy CRC DA2BB9A9
     Accurately ripped (confidence 1)  [413BF2DC]
     Copy OK
All tracks accurately ripped
No errors occurred
End of status report
11:49
649
Нет комментариев. Ваш будет первым!