Вы используете незарегистрированную версию компонента "Вкладки"!

Поиск

1954 Johnny Hodges & Charlie Shavers - Half & Half (2018) {Storyville} [24-192]

1954 Johnny Hodges & Charlie Shavers - Half & Half (2018) {Storyville} [24-192]
Стили:
Издатель (лейбл):
Битрейт аудио:
lossless
Доп. инфо:

Формат записи/Источник записи: [TR24][OF]
Издание: Remastered
Год издания/переиздания диска: 1954/2018
Продолжительность: 00:37:57
Наличие сканов в содержимом раздачи: Буклет PDF

Контейнер: FLAC (*.flac)
Тип рипа: tracks
Разрядность: 24/192
Количество каналов: 2.0

Источник (релизер): PROSTUDIOMASTERS

Лог проверки качества
foobar2000 1.4.3 / Dynamic Range Meter 1.1.1
log date: 2020-04-08 06:54:03

--------------------------------------------------------------------------------
Analyzed: Johnny Hodges & Charlie Shavers / Half & Half (Remastered)
--------------------------------------------------------------------------------

DR         Peak         RMS     Duration Track
--------------------------------------------------------------------------------
DR10      -3.35 dB   -15.64 dB      2:39 01-Perdido
DR11      -3.91 dB   -17.01 dB      2:39 02-Jeep's Blues
DR11      -5.56 dB   -17.87 dB      1:51 03-All of Me
DR11      -5.61 dB   -19.09 dB      2:18 04-C Jam Blues
DR11      -6.03 dB   -21.04 dB      2:10 05-I Got It Bad (And That Ain't Good)
DR13      -0.94 dB   -17.51 dB      6:59 06-In a Mellow Tone
DR10      -3.86 dB   -16.60 dB      2:24 07-Bye Bye Blackbird
DR12      -3.47 dB   -18.29 dB      1:55 08-Breezin' Along with the Breeze
DR12      -3.96 dB   -19.31 dB      2:15 09-Embraceable You
DR12      -2.67 dB   -17.36 dB      2:50 10-What Is This Thing Called Love?
DR11      -4.15 dB   -19.10 dB      3:33 11-Time on My Hands
DR11      -4.52 dB   -16.92 dB      2:55 12-Undecided
DR12      -3.32 dB   -17.55 dB      3:36 13-I'll Make Fun for You
--------------------------------------------------------------------------------

Number of tracks:  13
Official DR value: DR11

Samplerate:        192000 Hz
Channels:          2
Bits per sample:   24
Bitrate:           3781 kbps
Codec:             FLAC
================================================================================
Any questions - support@pro-jazz.com. Есть вопросы - support@pro-jazz.com
13:30
388
Нет комментариев. Ваш будет первым!