Вы используете незарегистрированную версию компонента "Вкладки"!

Поиск

1954 Frank Sinatra - Songs For Young Lovers (2015) {Capitol, LLC} [24-96]

1954 Frank Sinatra - Songs For Young Lovers (2015) {Capitol, LLC} [24-96]
Дата записи диска:
5-6 ноября 1953
Место записи:
Hollywood, USA
Дата издания диска:
февраль 1954
Издатель (лейбл):
Доп. инфо:

Формат записи/Источник записи: [TR24][OF]
Наличие водяных знаков: Нет
Год издания/переиздания диска: 1954/2015
Продолжительность: 21:36
Наличие сканов в содержимом раздачи: Только обложка альбома

Контейнер: FLAC (*.flac)
Тип рипа: tracks
Разрядность: 24/96
Формат: PCM
Количество каналов: 2.0

Источник: prostudiomasters.com

Лог проверки качества
foobar2000 1.3.9 / Dynamic Range Meter 1.1.1
log date: 2020-01-05 08:43:55

--------------------------------------------------------------------------------
Analyzed: Frank Sinatra / Songs For Young Lovers
--------------------------------------------------------------------------------

DR         Peak         RMS     Duration Track
--------------------------------------------------------------------------------
DR11      -0.29 dB   -15.07 dB      2:31 01-My Funny Valentine
DR10      -0.58 dB   -14.01 dB      2:35 02-The Girl Next Door
DR11      -0.22 dB   -14.00 dB      2:37 03-A Foggy Day
DR11      -0.34 dB   -14.24 dB      3:09 04-Like Someone In Love
DR11      -0.27 dB   -14.36 dB      2:53 05-I Get A Kick Out Of You
DR11      -0.75 dB   -14.56 dB      2:51 06-Little Girl Blue
DR11      -0.34 dB   -13.58 dB      1:56 07-They Can't Take That Away From Me
DR11      -0.18 dB   -13.44 dB      3:05 08-Violets For Your Furs
--------------------------------------------------------------------------------

Number of tracks:  8
Official DR value: DR11

Samplerate:        96000 Hz
Channels:          2
Bits per sample:   24
Bitrate:           1757 kbps
Codec:             FLAC
================================================================================
Any questions - support@pro-jazz.com. Есть вопросы - support@pro-jazz.com
18:17
368
Нет комментариев. Ваш будет первым!