Поиск

1954 Buddy DeFranco - The Artistry of Buddy DeFranco (2021) {Music Manager} [24-48]

1954 Buddy DeFranco - The Artistry of Buddy DeFranco (2021) {Music Manager} [24-48]
Стили:
Дата переиздания диска:
9 августа 2021
Издатель (лейбл):
Носитель:
WEB
Формат:
PCM
Тип рипа:
tracks
Контейнер:
FLAC (*.flac)
Количество каналов:
2.0
Разрядность/ЧД:
24/48
Битрейт аудио:
lossless
Время звучания:
00:43:22
Наличие сканов:
только обложка

01 - Titoro 10:02
02 - You Go to My Head 06:11
03 - Mine 06:28
04 - Gerry's Tune 06:36
05 - Autumn Leaves 07:34
06 - Now's the Time 06:31

Состав:
Лог проверки качества
foobar2000 1.4.6 / Dynamic Range Meter 1.1.1
log date: 2021-10-29 18:54:29
--------------------------------------------------------------------------------
Analyzed: Buddy Defranco / The Artistry of Buddy DeFranco
--------------------------------------------------------------------------------
DR         Peak         RMS     Duration Track
--------------------------------------------------------------------------------
DR13       0.00 dB   -14.83 dB     10:02 01-Titoro
DR11      -0.07 dB   -13.55 dB      6:12 02-You Go to My Head
DR12      -0.16 dB   -13.58 dB      6:29 03-Mine
DR12      -0.21 dB   -13.66 dB      6:37 04-Gerry's Tune
DR12      -0.03 dB   -14.07 dB      7:34 05-Autumn Leaves
DR12      -0.07 dB   -13.31 dB      6:31 06-Now's the Time
--------------------------------------------------------------------------------
Number of tracks:  6
Official DR value: DR12
Samplerate:        48000 Hz
Channels:          2
Bits per sample:   24
Bitrate:           965 kbps
Codec:             FLAC
================================================================================
Приватный:
Нет (DHT включён)
Размер:
291.97 Мб (306,151,270 байт) » файлов: 10
Участники:
1 раздают, 0 качают (1 участников всего)
Внешние участники:
--- [ Обновить ]
23:57
378
Нет комментариев. Ваш будет первым!