Поиск

1950-1952 Stan Getz Quintet - Chamber Music & Split Kick (2002, 2LP on 1CD) {Toshiba, EMI TOCJ 9402}

1950-1952 Stan Getz Quintet - Chamber Music & Split Kick (2002, 2LP on 1CD) {Toshiba, EMI TOCJ 9402}
Стили:
Издатель (лейбл):
Треклист:

Год выпуска диска: 2002
Дата записи альбома: 1 марта 1951 - 5 декабря 1952 и 10 декабря 1950 - 5 декабря 1952
Производитель диска: Japan
Номер по каталогу: TOCJ 9402
Аудио кодек: Flac
Тип рипа: tracks +.cue
Битрейт аудио: lossless
Продолжительность: 45:43
Источник (релизер): web
Сканы: в комплекте
Трэклист:
01. Yvette
02. Potter's Luck
03. Autumn Leaves
04. Lullaby Of Birdland
05. Wildwood
06. Melody Express
07. These Foolish Things
08. Penny
09. Split Kick
10. It Might As Well Be Spring
11. The Best Thing For You
12. You Go To My Head
13. Fools Rush In
14. On The Alamo
15. 'S Wonderful
16. Out Of Nowhere

Доп. информация:
24 bit remastered by Terra Studio .
Два отменных альбома в одном от мастера своего дела Стена Гетца. Японцы сделали безболезненный трансфер. Звук льется мягко и безмятежно. Приятного прослушивания!)

 
EAC log
Exact Audio Copy V0.99 prebeta 5 from 4. May 2009
EAC extraction logfile from 20. November 2010, 23:58
Stan Gets / Chamber Music & Split Kick (TOCJ 9402)(1950)
Used drive  : PHILIPS SPD2519T   Adapter: 1  ID: 0
Read mode               : Secure
Utilize accurate stream : Yes
Defeat audio cache      : Yes
Make use of C2 pointers : No
Read offset correction                      : 6
Overread into Lead-In and Lead-Out          : No
Fill up missing offset samples with silence : Yes
Delete leading and trailing silent blocks   : No
Null samples used in CRC calculations       : Yes
Used interface                              : Installed external ASPI interface
Gap handling                                : Not detected, thus appended to previous track
Used output format              : User Defined Encoder
Selected bitrate                : 1024 kBit/s
Quality                         : High
Add ID3 tag                     : Yes
Command line compressor         : C:\Program Files\FLAC\flac.exe
Additional command line options : -6 -6 -V -T "ARTIST=%a" -T "TITLE=%t" -T "ALBUM=%g" -T "DATE=%y" -T "TRACKNUMBER=%n" -T "GENRE=%m" -T "COMMENT=EAC FLAC -6" %s
TOC of the extracted CD
     Track |   Start  |  Length  | Start sector | End sector
    ---------------------------------------------------------
        1  |  0:00.00 |  2:59.12 |         0    |    13436
        2  |  2:59.12 |  2:42.13 |     13437    |    25599
        3  |  5:41.25 |  3:01.50 |     25600    |    39224
        4  |  8:43.00 |  2:25.50 |     39225    |    50149
        5  | 11:08.50 |  3:06.37 |     50150    |    64136
        6  | 14:15.12 |  2:47.50 |     64137    |    76711
        7  | 17:02.62 |  3:01.38 |     76712    |    90324
        8  | 20:04.25 |  2:52.37 |     90325    |   103261
        9  | 22:56.62 |  3:13.00 |    103262    |   117736
       10  | 26:09.62 |  2:57.63 |    117737    |   131074
       11  | 29:07.50 |  2:47.00 |    131075    |   143599
       12  | 31:54.50 |  3:03.62 |    143600    |   157386
       13  | 34:58.37 |  2:27.50 |    157387    |   168461
       14  | 37:26.12 |  2:49.25 |    168462    |   181161
       15  | 40:15.37 |  2:57.63 |    181162    |   194499
       16  | 43:13.25 |  2:29.25 |    194500    |   205699
Track  1
     Filename D:\Stan Gets - Chamber Music & Split Kick (TOCJ 9402)(1950)\01 - Yvette.wav
     Peak level 100.0 %
     Track quality 100.0 %
     Copy CRC E29F4495
     Track not present in AccurateRip database
     Copy OK
Track  2
     Filename D:\Stan Gets - Chamber Music & Split Kick (TOCJ 9402)(1950)\02 - Potter's Luck.wav
     Peak level 100.0 %
     Track quality 100.0 %
     Copy CRC 2FC80E96
     Track not present in AccurateRip database
     Copy OK
Track  3
     Filename D:\Stan Gets - Chamber Music & Split Kick (TOCJ 9402)(1950)\03 - Autumn Leaves.wav
     Peak level 85.3 %
     Track quality 99.9 %
     Copy CRC D72FFF4F
     Track not present in AccurateRip database
     Copy OK
Track  4
     Filename D:\Stan Gets - Chamber Music & Split Kick (TOCJ 9402)(1950)\04 - Lullaby Of Birdland.wav
     Peak level 99.8 %
     Track quality 100.0 %
     Copy CRC 50321899
     Track not present in AccurateRip database
     Copy OK
Track  5
     Filename D:\Stan Gets - Chamber Music & Split Kick (TOCJ 9402)(1950)\05 - Wildwood.wav
     Peak level 99.8 %
     Track quality 100.0 %
     Copy CRC 56710E54
     Track not present in AccurateRip database
     Copy OK
Track  6
     Filename D:\Stan Gets - Chamber Music & Split Kick (TOCJ 9402)(1950)\06 - Melody Express.wav
     Peak level 99.8 %
     Track quality 100.0 %
     Copy CRC 3F91541B
     Track not present in AccurateRip database
     Copy OK
Track  7
     Filename D:\Stan Gets - Chamber Music & Split Kick (TOCJ 9402)(1950)\07 - These Foolish Things.wav
     Peak level 98.5 %
     Track quality 100.0 %
     Copy CRC 7E8A78A2
     Track not present in AccurateRip database
     Copy OK
Track  8
     Filename D:\Stan Gets - Chamber Music & Split Kick (TOCJ 9402)(1950)\08 - Penny.wav
     Peak level 99.9 %
     Track quality 100.0 %
     Copy CRC ACB17CF1
     Track not present in AccurateRip database
     Copy OK
Track  9
     Filename D:\Stan Gets - Chamber Music & Split Kick (TOCJ 9402)(1950)\09 - Split Kick.wav
     Peak level 99.7 %
     Track quality 100.0 %
     Copy CRC 6720EF28
     Track not present in AccurateRip database
     Copy OK
Track 10
     Filename D:\Stan Gets - Chamber Music & Split Kick (TOCJ 9402)(1950)\10 - It Might As Well Be Spring.wav
     Peak level 99.4 %
     Track quality 100.0 %
     Copy CRC 544C228C
     Track not present in AccurateRip database
     Copy OK
Track 11
     Filename D:\Stan Gets - Chamber Music & Split Kick (TOCJ 9402)(1950)\11 - The Best Thing For You.wav
     Peak level 99.2 %
     Track quality 100.0 %
     Copy CRC 06A8970F
     Track not present in AccurateRip database
     Copy OK
Track 12
     Filename D:\Stan Gets - Chamber Music & Split Kick (TOCJ 9402)(1950)\12 - You Go To My Head.wav
     Peak level 96.5 %
     Track quality 100.0 %
     Copy CRC 67CB2EB4
     Track not present in AccurateRip database
     Copy OK
Track 13
     Filename D:\Stan Gets - Chamber Music & Split Kick (TOCJ 9402)(1950)\13 - Fools Rush In.wav
     Peak level 81.0 %
     Track quality 100.0 %
     Copy CRC 25ED9A87
     Track not present in AccurateRip database
     Copy OK
Track 14
     Filename D:\Stan Gets - Chamber Music & Split Kick (TOCJ 9402)(1950)\14 - On The Alamo.wav
     Peak level 93.5 %
     Track quality 99.9 %
     Copy CRC 82AF845B
     Track not present in AccurateRip database
     Copy OK
Track 15
     Filename D:\Stan Gets - Chamber Music & Split Kick (TOCJ 9402)(1950)\15 - 'S Wonderful.wav
     Peak level 98.6 %
     Track quality 100.0 %
     Copy CRC 86DDE176
     Track not present in AccurateRip database
     Copy OK
Track 16
     Filename D:\Stan Gets - Chamber Music & Split Kick (TOCJ 9402)(1950)\16 - Out Of Nowhere.wav
     Peak level 96.0 %
     Track quality 100.0 %
     Copy CRC B19F6471
     Track not present in AccurateRip database
     Copy OK
None of the tracks are present in the AccurateRip database
No errors occurred
End of status report
 
.cue
REM GENRE Jazz
REM DATE 1950
REM COMMENT EAC FLAC -6
PERFORMER "Stan Gets"
TITLE "Chamber Music & Split Kick (TOCJ 9402)(1950)"
FILE "01 - Yvette.flac" WAVE
  TRACK 01 AUDIO
    TITLE "Yvette"
    INDEX 01 00:00:00
FILE "02 - Potter's Luck.flac" WAVE
  TRACK 02 AUDIO
    TITLE "Potter's Luck"
    INDEX 01 00:00:00
FILE "03 - Autumn Leaves.flac" WAVE
  TRACK 03 AUDIO
    TITLE "Autumn Leaves"
    INDEX 01 00:00:00
FILE "04 - Lullaby Of Birdland.flac" WAVE
  TRACK 04 AUDIO
    TITLE "Lullaby Of Birdland"
    INDEX 01 00:00:00
FILE "05 - Wildwood.flac" WAVE
  TRACK 05 AUDIO
    TITLE "Wildwood"
    INDEX 01 00:00:00
FILE "06 - Melody Express.flac" WAVE
  TRACK 06 AUDIO
    TITLE "Melody Express"
    INDEX 01 00:00:00
FILE "07 - These Foolish Things.flac" WAVE
  TRACK 07 AUDIO
    TITLE "These Foolish Things"
    INDEX 01 00:00:00
FILE "08 - Penny.flac" WAVE
  TRACK 08 AUDIO
    TITLE "Penny"
    INDEX 01 00:00:00
FILE "09 - Split Kick.flac" WAVE
  TRACK 09 AUDIO
    TITLE "Split Kick"
    INDEX 01 00:00:00
FILE "10 - It Might As Well Be Spring.flac" WAVE
  TRACK 10 AUDIO
    TITLE "It Might As Well Be Spring"
    INDEX 01 00:00:00
FILE "11 - The Best Thing For You.flac" WAVE
  TRACK 11 AUDIO
    TITLE "The Best Thing For You"
    INDEX 01 00:00:00
FILE "12 - You Go To My Head.flac" WAVE
  TRACK 12 AUDIO
    TITLE "You Go To My Head"
    INDEX 01 00:00:00
FILE "13 - Fools Rush In.flac" WAVE
  TRACK 13 AUDIO
    TITLE "Fools Rush In"
    INDEX 01 00:00:00
FILE "14 - On The Alamo.flac" WAVE
  TRACK 14 AUDIO
    TITLE "On The Alamo"
    INDEX 01 00:00:00
FILE "15 - 'S Wonderful.flac" WAVE
  TRACK 15 AUDIO
    TITLE "'S Wonderful"
    INDEX 01 00:00:00
FILE "16 - Out Of Nowhere.flac" WAVE
  TRACK 16 AUDIO
    TITLE "Out Of Nowhere"
    INDEX 01 00:00:00
Приватный:
Нет (DHT включён)
Размер:
200.69 Мб (210,434,809 байт) » файлов: 29
Участники:
0 раздают, 0 качают (0 участников всего)
Внешние участники:
1 раздают, 0 качают (1 участников всего) [ Обновить ]
Никого нет на раздаче - пишите личное сообщение M0p94ok
No seeders - write personal message to M0p94ok
17:02
74
Нет комментариев. Ваш будет первым!