Вы используете незарегистрированную версию компонента "Вкладки"!

Поиск

1940-1943 Fats Waller - The Last Years (1989) {Bluebird 9883-2-RB} [3CD]

1940-1943 Fats Waller - The Last Years (1989) {Bluebird 9883-2-RB} [3CD]
Стили:
Треклист:
Носитель: CD
Страна-производитель диска: США
Год издания: 1989
Издатель (лейбл): Bluebird
Номер по каталогу: 9883-2-RB
Аудиокодек: FLAC (*.flac)
Тип рипа: tracks+.cue
Битрейт аудио: lossless
Продолжительность: 3:13:46
Источник (релизер): Ellingtonia (what)
Наличие сканов в содержимом раздачи: нет
 
CD1 {67:04}
01. Old Grand Dad (2:47)
02. Fat and Greasy (3:07)
03. Little Curly Hair in a High Chair (3:10)
04. (You're A) Square from Delaware (2:57)
05. You Run Your Mouth, I'll Run My Business (3:28)
06. Too Tired (2:57)
07. "Send Me" Jackson (3:15)
08. Eep, Ipe, Wanna Piece of Pie (2:47)
09. Stop Pretending (3:07)
10. I'll Never Smile Again (3:08)
11. My Mommie Sent Me to the Store (3:00)
12. Dry Bones (3:20)
13. Fats Waller's Original E Flat Blues (3:15)
14. Stayin' at Home (3:27)
15. Hey! Stop Kissin' My Sister (2:48)
16. Everybody Loves My Baby (2:56)
17. I'm Gonna Salt Away Some Sugar (3:17)
18. 'Tain't Nobody's Biz-Ness If I Do (3:00)
19. Abercrombie Had a Zombie (3:25)
20. Blue Eyes (2:42)
21. Scram! (2:43)
22. My Melancholy Baby (2:28)
 
 
Лог создания рипа
X Lossless Decoder version 20131102 (145.0)
XLD extraction logfile from 2014-10-18 14:43:25 -0700
Fats Waller / The Last Years [1940-1943]
Used drive : HL-DT-ST DVDRAM GP10NB20 (revision 1.04)
Media type : Pressed CD
Ripper mode             : XLD Secure Ripper
Disable audio cache     : OK for the drive with a cache less than 1375KiB
Make use of C2 pointers : NO
Read offset correction  : 6
Max retry count         : 100
Gap status              : Analyzed, Appended (except HTOA)
TOC of the extracted CD
     Track |   Start  |  Length  | Start sector | End sector
    ---------------------------------------------------------
        1  | 00:00:00 | 02:47:00 |         0    |    12524
        2  | 02:47:00 | 03:07:20 |     12525    |    26569
        3  | 05:54:20 | 03:10:30 |     26570    |    40849
        4  | 09:04:50 | 02:57:30 |     40850    |    54154
        5  | 12:02:05 | 03:28:10 |     54155    |    69764
        6  | 15:30:15 | 02:57:10 |     69765    |    83049
        7  | 18:27:25 | 03:15:30 |     83050    |    97704
        8  | 21:42:55 | 02:47:23 |     97705    |   110252
        9  | 24:30:03 | 03:07:30 |    110253    |   124307
       10  | 27:37:33 | 03:07:42 |    124308    |   138374
       11  | 30:45:00 | 03:00:25 |    138375    |   151899
       12  | 33:45:25 | 03:20:08 |    151900    |   166907
       13  | 37:05:33 | 03:14:65 |    166908    |   181522
       14  | 40:20:23 | 03:27:10 |    181523    |   197057
       15  | 43:47:33 | 02:47:47 |    197058    |   209629
       16  | 46:35:05 | 02:55:38 |    209630    |   222792
       17  | 49:30:43 | 03:17:32 |    222793    |   237599
       18  | 52:48:00 | 03:00:00 |    237600    |   251099
       19  | 55:48:00 | 03:25:20 |    251100    |   266494
       20  | 59:13:20 | 02:42:00 |    266495    |   278644
       21  | 61:55:20 | 02:42:38 |    278645    |   290832
       22  | 64:37:58 | 02:27:60 |    290833    |   301917
AccurateRip Summary (DiscID: 00359e67-035ac76c-4c0fb916)
    Track 01 : OK (v1+v2, confidence 8/8)
    Track 02 : OK (v1+v2, confidence 7/7)
    Track 03 : OK (v1+v2, confidence 8/8)
    Track 04 : OK (v1+v2, confidence 7/7)
    Track 05 : OK (v1+v2, confidence 7/7)
    Track 06 : OK (v1+v2, confidence 8/8)
    Track 07 : OK (v1+v2, confidence 7/7)
    Track 08 : OK (v1+v2, confidence 7/7)
    Track 09 : OK (v1+v2, confidence 8/8)
    Track 10 : OK (v1+v2, confidence 8/8)
    Track 11 : OK (v1+v2, confidence 8/8)
    Track 12 : OK (v1+v2, confidence 8/8)
    Track 13 : OK (v1+v2, confidence 8/8)
    Track 14 : OK (v1+v2, confidence 8/8)
    Track 15 : OK (v1+v2, confidence 8/8)
    Track 16 : OK (v1+v2, confidence 8/8)
    Track 17 : OK (v1+v2, confidence 8/8)
    Track 18 : OK (v1+v2, confidence 8/8)
    Track 19 : OK (v1+v2, confidence 7/7)
    Track 20 : OK (v1+v2, confidence 8/8)
    Track 21 : OK (v1+v2, confidence 7/7)
    Track 22 : OK (v1+v2, confidence 8/8)
        ->All tracks accurately ripped.
All Tracks
    Album gain               : -2.20 dB
    Peak                     : 0.971741
    Statistics
        Read error                           : 0
        Jitter error (maybe fixed)           : 0
        Retry sector count                   : 0
        Damaged sector count                 : 0
Track 01
    Filename : /Volumes/Seeding/Fats Waller - The Last Years [1940-1943] (1989) [FLAC]/01 Old Grand Dad.flac
    Pre-gap length : 00:02:00
    Track gain               : -0.29 dB
    Peak                     : 0.958557
    CRC32 hash (test run)    : 19D5390A
    CRC32 hash               : 19D5390A
    CRC32 hash (skip zero)   : 3D4830C3
    AccurateRip v1 signature : 2E22C3CF
    AccurateRip v2 signature : DA6AFA32
        ->Accurately ripped (v1+v2, confidence 5+3/8)
    Statistics
        Read error                           : 0
        Jitter error (maybe fixed)           : 0
        Retry sector count                   : 0
        Damaged sector count                 : 0
Track 02
    Filename : /Volumes/Seeding/Fats Waller - The Last Years [1940-1943] (1989) [FLAC]/02 Fat And Greasy.flac
    Pre-gap length : 00:01:37
    Track gain               : -1.74 dB
    Peak                     : 0.876190
    CRC32 hash (test run)    : CF635D37
    CRC32 hash               : CF635D37
    CRC32 hash (skip zero)   : 5A792FDF
    AccurateRip v1 signature : 6F34C0DB
    AccurateRip v2 signature : DE5E2183
        ->Accurately ripped (v1+v2, confidence 4+3/7)
    Statistics
        Read error                           : 0
        Jitter error (maybe fixed)           : 0
        Retry sector count                   : 0
        Damaged sector count                 : 0
Track 03
    Filename : /Volumes/Seeding/Fats Waller - The Last Years [1940-1943] (1989) [FLAC]/03 Little Curly Hair In A High Chair.flac
    Pre-gap length : 00:01:62
    Track gain               : 1.14 dB
    Peak                     : 0.763336
    CRC32 hash (test run)    : 380C7338
    CRC32 hash               : 380C7338
    CRC32 hash (skip zero)   : F6A2559C
    AccurateRip v1 signature : 81213213
    AccurateRip v2 signature : 14CBA1FE
        ->Accurately ripped (v1+v2, confidence 5+3/8)
    Statistics
        Read error                           : 0
        Jitter error (maybe fixed)           : 0
        Retry sector count                   : 0
        Damaged sector count                 : 0
Track 04
    Filename : /Volumes/Seeding/Fats Waller - The Last Years [1940-1943] (1989) [FLAC]/04 (You're A) Square From Delaware.flac
    Pre-gap length : 00:01:62
    Track gain               : -2.01 dB
    Peak                     : 0.971741
    CRC32 hash (test run)    : 80BDDE62
    CRC32 hash               : 80BDDE62
    CRC32 hash (skip zero)   : B4555EEF
    AccurateRip v1 signature : C31BFD27
    AccurateRip v2 signature : C0FBFE9F
        ->Accurately ripped (v1+v2, confidence 4+3/7)
    Statistics
        Read error                           : 0
        Jitter error (maybe fixed)           : 0
        Retry sector count                   : 0
        Damaged sector count                 : 0
Track 05
    Filename : /Volumes/Seeding/Fats Waller - The Last Years [1940-1943] (1989) [FLAC]/05 You Run Your Mouth, I'll Run My Business.flac
    Pre-gap length : 00:01:62
    Track gain               : -3.05 dB
    Peak                     : 0.848999
    CRC32 hash (test run)    : D7A0494F
    CRC32 hash               : D7A0494F
    CRC32 hash (skip zero)   : 46CDEF83
    AccurateRip v1 signature : 349D1F9B
    AccurateRip v2 signature : B79D13B8
        ->Accurately ripped (v1+v2, confidence 4+3/7)
    Statistics
        Read error                           : 0
        Jitter error (maybe fixed)           : 0
        Retry sector count                   : 0
        Damaged sector count                 : 0
Track 06
    Filename : /Volumes/Seeding/Fats Waller - The Last Years [1940-1943] (1989) [FLAC]/06 Too Tired.flac
    Pre-gap length : 00:01:62
    Track gain               : 1.09 dB
    Peak                     : 0.930481
    CRC32 hash (test run)    : 01500F18
    CRC32 hash               : 01500F18
    CRC32 hash (skip zero)   : 857F0E9A
    AccurateRip v1 signature : 65AA8A4B
    AccurateRip v2 signature : F32C3899
        ->Accurately ripped (v1+v2, confidence 5+3/8)
    Statistics
        Read error                           : 0
        Jitter error (maybe fixed)           : 0
        Retry sector count                   : 0
        Damaged sector count                 : 0
Track 07
    Filename : /Volumes/Seeding/Fats Waller - The Last Years [1940-1943] (1989) [FLAC]/07 "Send Me" Jackson.flac
    Pre-gap length : 00:01:62
    Track gain               : -2.90 dB
    Peak                     : 0.930481
    CRC32 hash (test run)    : 87D7DE5B
    CRC32 hash               : 87D7DE5B
    CRC32 hash (skip zero)   : 631F184F
    AccurateRip v1 signature : C92F479E
    AccurateRip v2 signature : B24B84AB
        ->Accurately ripped (v1+v2, confidence 4+3/7)
    Statistics
        Read error                           : 0
        Jitter error (maybe fixed)           : 0
        Retry sector count                   : 0
        Damaged sector count                 : 0
Track 08
    Filename : /Volumes/Seeding/Fats Waller - The Last Years [1940-1943] (1989) [FLAC]/08 Eep, Ipe, Wanna Piece Of Pie.flac
    Pre-gap length : 00:01:62
    Track gain               : 0.10 dB
    Peak                     : 0.960480
    CRC32 hash (test run)    : F5A0D660
    CRC32 hash               : F5A0D660
    CRC32 hash (skip zero)   : B102F69D
    AccurateRip v1 signature : FC264CE0
    AccurateRip v2 signature : 96F78B0A
        ->Accurately ripped (v1+v2, confidence 4+3/7)
    Statistics
        Read error                           : 0
        Jitter error (maybe fixed)           : 0
        Retry sector count                   : 0
        Damaged sector count                 : 0
Track 09
    Filename : /Volumes/Seeding/Fats Waller - The Last Years [1940-1943] (1989) [FLAC]/09 Stop Pretending.flac
    Pre-gap length : 00:01:63
    Track gain               : 0.66 dB
    Peak                     : 0.744537
    CRC32 hash (test run)    : DA3431BC
    CRC32 hash               : DA3431BC
    CRC32 hash (skip zero)   : 45B298DA
    AccurateRip v1 signature : 7E481F5D
    AccurateRip v2 signature : 67B0EBFC
        ->Accurately ripped (v1+v2, confidence 5+3/8)
    Statistics
        Read error                           : 0
        Jitter error (maybe fixed)           : 0
        Retry sector count                   : 0
        Damaged sector count                 : 0
Track 10
    Filename : /Volumes/Seeding/Fats Waller - The Last Years [1940-1943] (1989) [FLAC]/10 I'll Never Smile Again.flac
    Pre-gap length : 00:01:63
    Track gain               : 2.03 dB
    Peak                     : 0.921875
    CRC32 hash (test run)    : B2C4096F
    CRC32 hash               : B2C4096F
    CRC32 hash (skip zero)   : 0232AC9B
    AccurateRip v1 signature : 1A030580
    AccurateRip v2 signature : 20FF031C
        ->Accurately ripped (v1+v2, confidence 5+3/8)
    Statistics
        Read error                           : 0
        Jitter error (maybe fixed)           : 0
        Retry sector count                   : 0
        Damaged sector count                 : 0
Track 11
    Filename : /Volumes/Seeding/Fats Waller - The Last Years [1940-1943] (1989) [FLAC]/11 My Mommie Sent Me To The Store.flac
    Pre-gap length : 00:01:62
    Track gain               : -2.21 dB
    Peak                     : 0.938110
    CRC32 hash (test run)    : BF8D6576
    CRC32 hash               : BF8D6576
    CRC32 hash (skip zero)   : F878A781
    AccurateRip v1 signature : 4B91610A
    AccurateRip v2 signature : FF1F582F
        ->Accurately ripped (v1+v2, confidence 5+3/8)
    Statistics
        Read error                           : 0
        Jitter error (maybe fixed)           : 0
        Retry sector count                   : 0
        Damaged sector count                 : 0
Track 12
    Filename : /Volumes/Seeding/Fats Waller - The Last Years [1940-1943] (1989) [FLAC]/12 Dry Bones.flac
    Pre-gap length : 00:01:62
    Track gain               : -0.58 dB
    Peak                     : 0.951935
    CRC32 hash (test run)    : 9D6FCFA9
    CRC32 hash               : 9D6FCFA9
    CRC32 hash (skip zero)   : B9869D59
    AccurateRip v1 signature : 1D06174A
    AccurateRip v2 signature : 296F8757
        ->Accurately ripped (v1+v2, confidence 5+3/8)
    Statistics
        Read error                           : 0
        Jitter error (maybe fixed)           : 0
        Retry sector count                   : 0
        Damaged sector count                 : 0
Track 13
    Filename : /Volumes/Seeding/Fats Waller - The Last Years [1940-1943] (1989) [FLAC]/13 Fats Waller's Original E Flat Blues.flac
    Pre-gap length : 00:01:63
    Track gain               : -2.55 dB
    Peak                     : 0.798859
    CRC32 hash (test run)    : 9EF4CFF6
    CRC32 hash               : 9EF4CFF6
    CRC32 hash (skip zero)   : BB4D6257
    AccurateRip v1 signature : E0B39178
    AccurateRip v2 signature : 7E4C108C
        ->Accurately ripped (v1+v2, confidence 5+3/8)
    Statistics
        Read error                           : 0
        Jitter error (maybe fixed)           : 0
        Retry sector count                   : 0
        Damaged sector count                 : 0
Track 14
    Filename : /Volumes/Seeding/Fats Waller - The Last Years [1940-1943] (1989) [FLAC]/14 Stayin' At Home.flac
    Pre-gap length : 00:01:63
    Track gain               : -1.27 dB
    Peak                     : 0.889038
    CRC32 hash (test run)    : 9298C238
    CRC32 hash               : 9298C238
    CRC32 hash (skip zero)   : 33B0DDF5
    AccurateRip v1 signature : FE8CDD44
    AccurateRip v2 signature : 10F416E6
        ->Accurately ripped (v1+v2, confidence 5+3/8)
    Statistics
        Read error                           : 0
        Jitter error (maybe fixed)           : 0
        Retry sector count                   : 0
        Damaged sector count                 : 0
Track 15
    Filename : /Volumes/Seeding/Fats Waller - The Last Years [1940-1943] (1989) [FLAC]/15 Hey! Stop Kissin' My Sister.flac
    Pre-gap length : 00:01:63
    Track gain               : -5.94 dB
    Peak                     : 0.947937
    CRC32 hash (test run)    : 7604D181
    CRC32 hash               : 7604D181
    CRC32 hash (skip zero)   : C7EAAB13
    AccurateRip v1 signature : 392D34E3
    AccurateRip v2 signature : DC8DDB93
        ->Accurately ripped (v1+v2, confidence 5+3/8)
    Statistics
        Read error                           : 0
        Jitter error (maybe fixed)           : 0
        Retry sector count                   : 0
        Damaged sector count                 : 0
Track 16
    Filename : /Volumes/Seeding/Fats Waller - The Last Years [1940-1943] (1989) [FLAC]/16 Everybody Loves My Baby.flac
    Pre-gap length : 00:01:62
    Track gain               : -4.69 dB
    Peak                     : 0.962341
    CRC32 hash (test run)    : 90CBC769
    CRC32 hash               : 90CBC769
    CRC32 hash (skip zero)   : 18452471
    AccurateRip v1 signature : 7760827F
    AccurateRip v2 signature : F2E74955
        ->Accurately ripped (v1+v2, confidence 5+3/8)
    Statistics
        Read error                           : 0
        Jitter error (maybe fixed)           : 0
        Retry sector count                   : 0
        Damaged sector count                 : 0
Track 17
    Filename : /Volumes/Seeding/Fats Waller - The Last Years [1940-1943] (1989) [FLAC]/17 I'm Gonna Salt Away Some Sugar.flac
    Pre-gap length : 00:01:63
    Track gain               : -2.88 dB
    Peak                     : 0.941315
    CRC32 hash (test run)    : 4A990A85
    CRC32 hash               : 4A990A85
    CRC32 hash (skip zero)   : 63AA2E38
    AccurateRip v1 signature : 72AA362A
    AccurateRip v2 signature : 6F3D9863
        ->Accurately ripped (v1+v2, confidence 5+3/8)
    Statistics
        Read error                           : 0
        Jitter error (maybe fixed)           : 0
        Retry sector count                   : 0
        Damaged sector count                 : 0
Track 18
    Filename : /Volumes/Seeding/Fats Waller - The Last Years [1940-1943] (1989) [FLAC]/18 'Tain't Nobody's Biz-ness If I Do.flac
    Pre-gap length : 00:01:62
    Track gain               : -3.75 dB
    Peak                     : 0.950897
    CRC32 hash (test run)    : E467EDCE
    CRC32 hash               : E467EDCE
    CRC32 hash (skip zero)   : AD8FBC05
    AccurateRip v1 signature : EC70B25F
    AccurateRip v2 signature : 52C73815
        ->Accurately ripped (v1+v2, confidence 5+3/8)
    Statistics
        Read error                           : 0
        Jitter error (maybe fixed)           : 0
        Retry sector count                   : 0
        Damaged sector count                 : 0
Track 19
    Filename : /Volumes/Seeding/Fats Waller - The Last Years [1940-1943] (1989) [FLAC]/19 Abercrombie Had A Zombie.flac
    Pre-gap length : 00:01:62
    Track gain               : -3.13 dB
    Peak                     : 0.951996
    CRC32 hash (test run)    : 6ACA5021
    CRC32 hash               : 6ACA5021
    CRC32 hash (skip zero)   : 2385FF34
    AccurateRip v1 signature : D691743A
    AccurateRip v2 signature : 5310A4A1
        ->Accurately ripped (v1+v2, confidence 4+3/7)
    Statistics
        Read error                           : 0
        Jitter error (maybe fixed)           : 0
        Retry sector count                   : 0
        Damaged sector count                 : 0
Track 20
    Filename : /Volumes/Seeding/Fats Waller - The Last Years [1940-1943] (1989) [FLAC]/20 Blue Eyes.flac
    Pre-gap length : 00:01:42
    Track gain               : 1.60 dB
    Peak                     : 0.751556
    CRC32 hash (test run)    : 1D64BD05
    CRC32 hash               : 1D64BD05
    CRC32 hash (skip zero)   : C381D234
    AccurateRip v1 signature : FD2F4876
    AccurateRip v2 signature : A4481969
        ->Accurately ripped (v1+v2, confidence 5+3/8)
    Statistics
        Read error                           : 0
        Jitter error (maybe fixed)           : 0
        Retry sector count                   : 0
        Damaged sector count                 : 0
Track 21
    Filename : /Volumes/Seeding/Fats Waller - The Last Years [1940-1943] (1989) [FLAC]/21 Scram!.flac
    Pre-gap length : 00:00:30
    Track gain               : -1.75 dB
    Peak                     : 0.856781
    CRC32 hash (test run)    : 47AD65BF
    CRC32 hash               : 47AD65BF
    CRC32 hash (skip zero)   : 6F5FD445
    AccurateRip v1 signature : 9D0598FE
    AccurateRip v2 signature : EDB8C584
        ->Accurately ripped (v1+v2, confidence 4+3/7)
    Statistics
        Read error                           : 0
        Jitter error (maybe fixed)           : 0
        Retry sector count                   : 0
        Damaged sector count                 : 0
Track 22
    Filename : /Volumes/Seeding/Fats Waller - The Last Years [1940-1943] (1989) [FLAC]/22 My Melancholy Baby (f. Kathryn Perry).flac
    Pre-gap length : 00:01:63
    Track gain               : -2.96 dB
    Peak                     : 0.943726
    CRC32 hash (test run)    : 4BB27682
    CRC32 hash               : 4BB27682
    CRC32 hash (skip zero)   : 795D5429
    AccurateRip v1 signature : 0DE46D33
    AccurateRip v2 signature : 3A5EB566
        ->Accurately ripped (v1+v2, confidence 5+3/8)
    Statistics
        Read error                           : 0
        Jitter error (maybe fixed)           : 0
        Retry sector count                   : 0
        Damaged sector count                 : 0
No errors occurred
End of status report
-----BEGIN XLD SIGNATURE-----
YaMS_t1DpTjPQOJ.M_LgO3DRVMAVaCFYzLrotEvj7HBi14W4EaMYFORhFiinKTxH1_GmjYi6tsWD2h3NEgzQW410g8.50s_DXMuikOu
-----END XLD SIGNATURE-----
 
 
Содержание индексной карты (.CUE)
TITLE "The Last Years (1940-1943) CD1"
PERFORMER "Fats Waller"
REM GENRE "Jazz"
REM DATE "1989"
REM DISCID 4C0FB916
REM REPLAYGAIN_ALBUM_GAIN -2.20 dB
REM REPLAYGAIN_ALBUM_PEAK 0.971741
FILE "01 - Old Grand Dad.flac" WAVE
  TRACK 01 AUDIO
    TITLE "Old Grand Dad"
    REM REPLAYGAIN_TRACK_GAIN -0.29 dB
    REM REPLAYGAIN_TRACK_PEAK 0.958557
    INDEX 01 00:00:00
  TRACK 02 AUDIO
    TITLE "Fat And Greasy"
    REM REPLAYGAIN_TRACK_GAIN -1.74 dB
    REM REPLAYGAIN_TRACK_PEAK 0.876190
    INDEX 00 02:45:38
FILE "02 - Fat And Greasy.flac" WAVE
    INDEX 01 00:00:00
  TRACK 03 AUDIO
    TITLE "Little Curly Hair in a High Chair"
    REM REPLAYGAIN_TRACK_GAIN 1.14 dB
    REM REPLAYGAIN_TRACK_PEAK 0.763336
    INDEX 00 03:05:33
FILE "03 - Little Curly Hair in a High Chair.flac" WAVE
    INDEX 01 00:00:00
  TRACK 04 AUDIO
    TITLE "(You're A) Square from Delaware"
    REM REPLAYGAIN_TRACK_GAIN -2.01 dB
    REM REPLAYGAIN_TRACK_PEAK 0.971741
    INDEX 00 03:08:43
FILE "04 - (You're A) Square from Delaware.flac" WAVE
    INDEX 01 00:00:00
  TRACK 05 AUDIO
    TITLE "You Run Your Mouth, I'll Run My Business"
    REM REPLAYGAIN_TRACK_GAIN -3.05 dB
    REM REPLAYGAIN_TRACK_PEAK 0.848999
    INDEX 00 02:55:43
FILE "05 - You Run Your Mouth, I'll Run My Business.flac" WAVE
    INDEX 01 00:00:00
  TRACK 06 AUDIO
    TITLE "Too Tired"
    REM REPLAYGAIN_TRACK_GAIN 1.09 dB
    REM REPLAYGAIN_TRACK_PEAK 0.930481
    INDEX 00 03:26:23
FILE "06 - Too Tired.flac" WAVE
    INDEX 01 00:00:00
  TRACK 07 AUDIO
    TITLE "'Send Me' Jackson"
    REM REPLAYGAIN_TRACK_GAIN -2.90 dB
    REM REPLAYGAIN_TRACK_PEAK 0.930481
    INDEX 00 02:55:23
FILE "07 - 'Send Me' Jackson.flac" WAVE
    INDEX 01 00:00:00
  TRACK 08 AUDIO
    TITLE "Eep, Ipe, Wanna Piece of Pie"
    REM REPLAYGAIN_TRACK_GAIN 0.10 dB
    REM REPLAYGAIN_TRACK_PEAK 0.960480
    INDEX 00 03:13:43
FILE "08 - Eep, Ipe, Wanna Piece of Pie.flac" WAVE
    INDEX 01 00:00:00
  TRACK 09 AUDIO
    TITLE "Stop Pretending"
    REM REPLAYGAIN_TRACK_GAIN 0.66 dB
    REM REPLAYGAIN_TRACK_PEAK 0.744537
    INDEX 00 02:45:35
FILE "09 - Stop Pretending.flac" WAVE
    INDEX 01 00:00:00
  TRACK 10 AUDIO
    TITLE "I'll Never Smile Again"
    REM REPLAYGAIN_TRACK_GAIN 2.03 dB
    REM REPLAYGAIN_TRACK_PEAK 0.921875
    INDEX 00 03:05:42
FILE "10 - I'll Never Smile Again.flac" WAVE
    INDEX 01 00:00:00
  TRACK 11 AUDIO
    TITLE "My Mommie Sent Me to the Store"
    REM REPLAYGAIN_TRACK_GAIN -2.21 dB
    REM REPLAYGAIN_TRACK_PEAK 0.938110
    INDEX 00 03:05:55
FILE "11 - My Mommie Sent Me to the Store.flac" WAVE
    INDEX 01 00:00:00
  TRACK 12 AUDIO
    TITLE "Dry Bones"
    REM REPLAYGAIN_TRACK_GAIN -0.58 dB
    REM REPLAYGAIN_TRACK_PEAK 0.951935
    INDEX 00 02:58:38
FILE "12 - Dry Bones.flac" WAVE
    INDEX 01 00:00:00
  TRACK 13 AUDIO
    TITLE "Fats Waller's Original E Flat Blues"
    REM REPLAYGAIN_TRACK_GAIN -2.55 dB
    REM REPLAYGAIN_TRACK_PEAK 0.798859
    INDEX 00 03:18:20
FILE "13 - Fats Waller's Original E Flat Blues.flac" WAVE
    INDEX 01 00:00:00
  TRACK 14 AUDIO
    TITLE "Stayin' at Home"
    REM REPLAYGAIN_TRACK_GAIN -1.27 dB
    REM REPLAYGAIN_TRACK_PEAK 0.889038
    INDEX 00 03:13:02
FILE "14 - Stayin' at Home.flac" WAVE
    INDEX 01 00:00:00
  TRACK 15 AUDIO
    TITLE "Hey! Stop Kissin' My Sister"
    REM REPLAYGAIN_TRACK_GAIN -5.94 dB
    REM REPLAYGAIN_TRACK_PEAK 0.947937
    INDEX 00 03:25:22
FILE "15 - Hey! Stop Kissin' My Sister.flac" WAVE
    INDEX 01 00:00:00
  TRACK 16 AUDIO
    TITLE "Everybody Loves My Baby"
    REM REPLAYGAIN_TRACK_GAIN -4.69 dB
    REM REPLAYGAIN_TRACK_PEAK 0.962341
    INDEX 00 02:45:60
FILE "16 - Everybody Loves My Baby.flac" WAVE
    INDEX 01 00:00:00
  TRACK 17 AUDIO
    TITLE "I'm Gonna Salt Away Some Sugar"
    REM REPLAYGAIN_TRACK_GAIN -2.88 dB
    REM REPLAYGAIN_TRACK_PEAK 0.941315
    INDEX 00 02:53:50
FILE "17 - I'm Gonna Salt Away Some Sugar.flac" WAVE
    INDEX 01 00:00:00
  TRACK 18 AUDIO
    TITLE "'Tain't Nobody's Biz-Ness If I Do"
    REM REPLAYGAIN_TRACK_GAIN -3.75 dB
    REM REPLAYGAIN_TRACK_PEAK 0.950897
    INDEX 00 03:15:45
FILE "18 - 'Tain't Nobody's Biz-Ness If I Do.flac" WAVE
    INDEX 01 00:00:00
  TRACK 19 AUDIO
    TITLE "Abercrombie Had a Zombie"
    REM REPLAYGAIN_TRACK_GAIN -3.13 dB
    REM REPLAYGAIN_TRACK_PEAK 0.951996
    INDEX 00 02:58:13
FILE "19 - Abercrombie Had a Zombie.flac" WAVE
    INDEX 01 00:00:00
  TRACK 20 AUDIO
    TITLE "Blue Eyes"
    REM REPLAYGAIN_TRACK_GAIN 1.60 dB
    REM REPLAYGAIN_TRACK_PEAK 0.751556
    INDEX 00 03:23:53
FILE "20 - Blue Eyes.flac" WAVE
    INDEX 01 00:00:00
  TRACK 21 AUDIO
    TITLE "Scram!"
    REM REPLAYGAIN_TRACK_GAIN -1.75 dB
    REM REPLAYGAIN_TRACK_PEAK 0.856781
    INDEX 00 02:41:45
FILE "21 - Scram!.flac" WAVE
    INDEX 01 00:00:00
  TRACK 22 AUDIO
    TITLE "My Melancholy Baby"
    REM REPLAYGAIN_TRACK_GAIN -2.96 dB
    REM REPLAYGAIN_TRACK_PEAK 0.943726
    INDEX 00 02:40:50
FILE "22 - My Melancholy Baby.flac" WAVE
    INDEX 01 00:00:00
 
 
Отчет CUETools
[CUETools log; Date: 22.10.2014 1:01:06; Version: 2.1.5]
[CTDB TOCID: 0M02.3ayeRmv6wDmQAyqTBCT79Y-] found.
Track | CTDB Status
  1   | (6/6) Accurately ripped
  2   | (6/6) Accurately ripped
  3   | (6/6) Accurately ripped
  4   | (6/6) Accurately ripped
  5   | (6/6) Accurately ripped
  6   | (6/6) Accurately ripped
  7   | (6/6) Accurately ripped
  8   | (6/6) Accurately ripped
  9   | (6/6) Accurately ripped
 10   | (6/6) Accurately ripped
 11   | (6/6) Accurately ripped
 12   | (6/6) Accurately ripped
 13   | (6/6) Accurately ripped
 14   | (6/6) Accurately ripped
 15   | (6/6) Accurately ripped
 16   | (6/6) Accurately ripped
 17   | (6/6) Accurately ripped
 18   | (4/6) Accurately ripped
 19   | (6/6) Accurately ripped
 20   | (5/6) Accurately ripped
 21   | (6/6) Accurately ripped
 22   | (6/6) Accurately ripped
[AccurateRip ID: 00359e67-035ac76c-4c0fb916] found.
Track   [  CRC   |   V2   ] Status
 01     [2e22c3cf|da6afa32] (5+3/8) Accurately ripped
 02     [6f34c0db|de5e2183] (4+3/7) Accurately ripped
 03     [81213213|14cba1fe] (5+3/8) Accurately ripped
 04     [c31bfd27|c0fbfe9f] (4+3/7) Accurately ripped
 05     [349d1f9b|b79d13b8] (4+3/7) Accurately ripped
 06     [65aa8a4b|f32c3899] (5+3/8) Accurately ripped
 07     [c92f479e|b24b84ab] (4+3/7) Accurately ripped
 08     [fc264ce0|96f78b0a] (4+3/7) Accurately ripped
 09     [7e481f5d|67b0ebfc] (5+3/8) Accurately ripped
 10     [1a030580|20ff031c] (5+3/8) Accurately ripped
 11     [4b91610a|ff1f582f] (5+3/8) Accurately ripped
 12     [1d06174a|296f8757] (5+3/8) Accurately ripped
 13     [e0b39178|7e4c108c] (5+3/8) Accurately ripped
 14     [fe8cdd44|10f416e6] (5+3/8) Accurately ripped
 15     [392d34e3|dc8ddb93] (5+3/8) Accurately ripped
 16     [7760827f|f2e74955] (5+3/8) Accurately ripped
 17     [72aa362a|6f3d9863] (5+3/8) Accurately ripped
 18     [ec70b25f|52c73815] (5+3/8) Accurately ripped
 19     [d691743a|5310a4a1] (4+3/7) Accurately ripped
 20     [fd2f4876|a4481969] (5+3/8) Accurately ripped
 21     [9d0598fe|edb8c584] (4+3/7) Accurately ripped
 22     [0de46d33|3a5eb566] (5+3/8) Accurately ripped
Track Peak [ CRC32  ] [W/O NULL]
 --   97,1 [A7858B2B] [96D18941]
 01   95,8 [19D5390A] [3D4830C3]
 02   87,6 [CF635D37] [5A792FDF]
 03   76,3 [380C7338] [F6A2559C]
 04   97,1 [80BDDE62] [B4555EEF]
 05   84,9 [D7A0494F] [46CDEF83]
 06   93,0 [01500F18] [857F0E9A]
 07   93,0 [87D7DE5B] [631F184F]
 08   96,0 [F5A0D660] [B102F69D]
 09   74,4 [DA3431BC] [45B298DA]
 10   92,1 [B2C4096F] [0232AC9B]
 11   93,8 [BF8D6576] [F878A781]
 12   95,1 [9D6FCFA9] [B9869D59]
 13   79,8 [9EF4CFF6] [BB4D6257]
 14   88,9 [9298C238] [33B0DDF5]
 15   94,7 [7604D181] [C7EAAB13]
 16   96,2 [90CBC769] [18452471]
 17   94,1 [4A990A85] [63AA2E38]
 18   95,0 [E467EDCE] [AD8FBC05]
 19   95,2 [6ACA5021] [2385FF34]
 20   75,1 [1D64BD05] [C381D234]
 21   85,6 [47AD65BF] [6F5FD445]
 22   94,3 [4BB27682] [795D5429]
 
 
CD2 {64:07}
01. Mamacita (2:43)
02. Liver Lip Jones (3:02)
03. Buckin' the Dice (3:29)
04. Pantin' in the Panther Room (3:03)
05. Come Down to Earth, My Angel (3:12)
06. Shortnin' Bread (2:41)
07. I Repent (3:27)
08. Do You Have to Go? (3:18)
09. Pan-Pan (3:02)
10. I Wanna Hear Swing Songs (3:18)
11. You're Gonna Be Sorry (3:29)
12. All That Meat and No Potatoes (2:47)
13. Let's Get Away from It All (3:00)
14. Twenty Four Robbers (2:43)
15. I Understand (3:11)
16. Sad Sap Sucker Am I (3:03)
17. Headlines in the News (3:03)
18. Chant of the Groove (3:05)
19. Come and Get It (2:41)
20. Rump Steak Serenade (2:40)
21. Ain't Nothin' to It (3:10)
 
 
Лог создания рипа
X Lossless Decoder version 20131102 (145.0)
XLD extraction logfile from 2014-10-18 09:03:28 -0700
Fats Waller / Fats Waller - The Last Years [1940-1943]
Used drive : HL-DT-ST DVDRAM GP10NB20 (revision 1.04)
Media type : Pressed CD
Ripper mode             : XLD Secure Ripper
Disable audio cache     : OK for the drive with a cache less than 1375KiB
Make use of C2 pointers : NO
Read offset correction  : 6
Max retry count         : 100
Gap status              : Analyzed, Appended (except HTOA)
TOC of the extracted CD
     Track |   Start  |  Length  | Start sector | End sector
    ---------------------------------------------------------
        1  | 00:00:00 | 02:43:03 |         0    |    12227
        2  | 02:43:03 | 03:02:00 |     12228    |    25877
        3  | 05:45:03 | 03:29:37 |     25878    |    41589
        4  | 09:14:40 | 03:03:25 |     41590    |    55339
        5  | 12:17:65 | 03:11:50 |     55340    |    69714
        6  | 15:29:40 | 02:40:38 |     69715    |    81752
        7  | 18:10:03 | 03:26:62 |     81753    |    97264
        8  | 21:36:65 | 03:18:03 |     97265    |   112117
        9  | 24:54:68 | 03:01:40 |    112118    |   125732
       10  | 27:56:33 | 03:18:32 |    125733    |   140614
       11  | 31:14:65 | 03:28:43 |    140615    |   156257
       12  | 34:43:33 | 02:46:40 |    156258    |   168747
       13  | 37:29:73 | 02:59:70 |    168748    |   182242
       14  | 40:29:68 | 02:43:25 |    182243    |   194492
       15  | 43:13:18 | 03:10:57 |    194493    |   208799
       16  | 46:24:00 | 03:03:20 |    208800    |   222544
       17  | 49:27:20 | 03:02:45 |    222545    |   236239
       18  | 52:29:65 | 03:05:00 |    236240    |   250114
       19  | 55:34:65 | 02:41:30 |    250115    |   262219
       20  | 58:16:20 | 02:40:00 |    262220    |   274219
       21  | 60:56:20 | 03:10:23 |    274220    |   288492
AccurateRip Summary (DiscID: 0030edd2-02eddd02-5d0f0615)
    Track 01 : OK (v1+v2, confidence 7/7)
    Track 02 : OK (v1+v2, confidence 7/7)
    Track 03 : OK (v1+v2, confidence 8/8)
    Track 04 : OK (v1+v2, confidence 8/8)
    Track 05 : OK (v1+v2, confidence 9/9)
    Track 06 : OK (v1+v2, confidence 9/9)
    Track 07 : OK (v1+v2, confidence 8/8)
    Track 08 : OK (v1+v2, confidence 8/8)
    Track 09 : OK (v1+v2, confidence 8/8)
    Track 10 : OK (v1+v2, confidence 8/8)
    Track 11 : OK (v1+v2, confidence 9/9)
    Track 12 : OK (v1+v2, confidence 9/9)
    Track 13 : OK (v1+v2, confidence 9/9)
    Track 14 : OK (v1+v2, confidence 9/9)
    Track 15 : OK (v1+v2, confidence 8/8)
    Track 16 : OK (v1+v2, confidence 9/9)
    Track 17 : OK (v1+v2, confidence 8/8)
    Track 18 : OK (v1+v2, confidence 8/8)
    Track 19 : OK (v1+v2, confidence 8/8)
    Track 20 : OK (v1+v2, confidence 8/8)
    Track 21 : OK (v1+v2, confidence 8/8)
        ->All tracks accurately ripped.
All Tracks
    Album gain               : -2.14 dB
    Peak                     : 0.935760
    Statistics
        Read error                           : 0
        Jitter error (maybe fixed)           : 0
        Retry sector count                   : 0
        Damaged sector count                 : 0
Track 01
    Filename : /Volumes/Seeding/Compilations - Fats Waller - The Last Years [1940-1943] (1989) [FLAC]/01 Mamacita.flac
    Pre-gap length : 00:02:00
    Track gain               : 0.01 dB
    Peak                     : 0.842651
    CRC32 hash (test run)    : 50817534
    CRC32 hash               : 50817534
    CRC32 hash (skip zero)   : F7FA4216
    AccurateRip v1 signature : DD237482
    AccurateRip v2 signature : 4E6B013E
        ->Accurately ripped (v1+v2, confidence 4+3/7)
    Statistics
        Read error                           : 0
        Jitter error (maybe fixed)           : 0
        Retry sector count                   : 0
        Damaged sector count                 : 0
Track 02
    Filename : /Volumes/Seeding/Compilations - Fats Waller - The Last Years [1940-1943] (1989) [FLAC]/02 Liver Lips Jones.flac
    Pre-gap length : 00:01:63
    Track gain               : -1.60 dB
    Peak                     : 0.631744
    CRC32 hash (test run)    : 8A174A8C
    CRC32 hash               : 8A174A8C
    CRC32 hash (skip zero)   : 08FDFEDD
    AccurateRip v1 signature : 93D721DD
    AccurateRip v2 signature : A8BEB4B8
        ->Accurately ripped (v1+v2, confidence 4+3/7)
    Statistics
        Read error                           : 0
        Jitter error (maybe fixed)           : 0
        Retry sector count                   : 0
        Damaged sector count                 : 0
Track 03
    Filename : /Volumes/Seeding/Compilations - Fats Waller - The Last Years [1940-1943] (1989) [FLAC]/03 Buckin' The Dice.flac
    Pre-gap length : 00:01:38
    Track gain               : -5.98 dB
    Peak                     : 0.783539
    CRC32 hash (test run)    : BB502073
    CRC32 hash               : BB502073
    CRC32 hash (skip zero)   : 6B793489
    AccurateRip v1 signature : CF70FA2E
    AccurateRip v2 signature : BAB5E203
        ->Accurately ripped (v1+v2, confidence 5+3/8)
    Statistics
        Read error                           : 0
        Jitter error (maybe fixed)           : 0
        Retry sector count                   : 0
        Damaged sector count                 : 0
Track 04
    Filename : /Volumes/Seeding/Compilations - Fats Waller - The Last Years [1940-1943] (1989) [FLAC]/04 Pantin' In The Panther Room.flac
    Pre-gap length : 00:01:37
    Track gain               : -1.50 dB
    Peak                     : 0.601471
    CRC32 hash (test run)    : BC2C689C
    CRC32 hash               : BC2C689C
    CRC32 hash (skip zero)   : 5A83555C
    AccurateRip v1 signature : 2A030DE8
    AccurateRip v2 signature : 7356EF18
        ->Accurately ripped (v1+v2, confidence 5+3/8)
    Statistics
        Read error                           : 0
        Jitter error (maybe fixed)           : 0
        Retry sector count                   : 0
        Damaged sector count                 : 0
Track 05
    Filename : /Volumes/Seeding/Compilations - Fats Waller - The Last Years [1940-1943] (1989) [FLAC]/05 Come Down To Earth, My Angel.flac
    Pre-gap length : 00:01:36
    Track gain               : -0.99 dB
    Peak                     : 0.677032
    CRC32 hash (test run)    : 994983AD
    CRC32 hash               : 994983AD
    CRC32 hash (skip zero)   : D395F08E
    AccurateRip v1 signature : 887A2037
    AccurateRip v2 signature : 896B6648
        ->Accurately ripped (v1+v2, confidence 6+3/9)
    Statistics
        Read error                           : 0
        Jitter error (maybe fixed)           : 0
        Retry sector count                   : 0
        Damaged sector count                 : 0
Track 06
    Filename : /Volumes/Seeding/Compilations - Fats Waller - The Last Years [1940-1943] (1989) [FLAC]/06 Shortnin' Bread.flac
    Pre-gap length : 00:01:37
    Track gain               : -4.45 dB
    Peak                     : 0.727264
    CRC32 hash (test run)    : E0CFC08B
    CRC32 hash               : E0CFC08B
    CRC32 hash (skip zero)   : 240177E9
    AccurateRip v1 signature : EA851F8B
    AccurateRip v2 signature : 976D8ADE
        ->Accurately ripped (v1+v2, confidence 6+3/9)
    Statistics
        Read error                           : 0
        Jitter error (maybe fixed)           : 0
        Retry sector count                   : 0
        Damaged sector count                 : 0
Track 07
    Filename : /Volumes/Seeding/Compilations - Fats Waller - The Last Years [1940-1943] (1989) [FLAC]/07 I Repent.flac
    Pre-gap length : 00:01:38
    Track gain               : -1.36 dB
    Peak                     : 0.717621
    CRC32 hash (test run)    : 6A437C37
    CRC32 hash               : 6A437C37
    CRC32 hash (skip zero)   : 59282F4D
    AccurateRip v1 signature : F8035BB5
    AccurateRip v2 signature : E44284BC
        ->Accurately ripped (v1+v2, confidence 5+3/8)
    Statistics
        Read error                           : 0
        Jitter error (maybe fixed)           : 0
        Retry sector count                   : 0
        Damaged sector count                 : 0
Track 08
    Filename : /Volumes/Seeding/Compilations - Fats Waller - The Last Years [1940-1943] (1989) [FLAC]/08 Do You Have To Go.flac
    Pre-gap length : 00:01:37
    Track gain               : 2.09 dB
    Peak                     : 0.717590
    CRC32 hash (test run)    : 5127055E
    CRC32 hash               : 5127055E
    CRC32 hash (skip zero)   : A9E67D39
    AccurateRip v1 signature : C7CE97A0
    AccurateRip v2 signature : 13A37E24
        ->Accurately ripped (v1+v2, confidence 5+3/8)
    Statistics
        Read error                           : 0
        Jitter error (maybe fixed)           : 0
        Retry sector count                   : 0
        Damaged sector count                 : 0
Track 09
    Filename : /Volumes/Seeding/Compilations - Fats Waller - The Last Years [1940-1943] (1989) [FLAC]/09 Pan-Pan.flac
    Pre-gap length : 00:01:38
    Track gain               : -0.71 dB
    Peak                     : 0.909424
    CRC32 hash (test run)    : 33596D93
    CRC32 hash               : 33596D93
    CRC32 hash (skip zero)   : A3F6C81A
    AccurateRip v1 signature : EBCD092C
    AccurateRip v2 signature : 19B61C86
        ->Accurately ripped (v1+v2, confidence 5+3/8)
    Statistics
        Read error                           : 0
        Jitter error (maybe fixed)           : 0
        Retry sector count                   : 0
        Damaged sector count                 : 0
Track 10
    Filename : /Volumes/Seeding/Compilations - Fats Waller - The Last Years [1940-1943] (1989) [FLAC]/10 I Wanna Hear Swing Songs.flac
    Pre-gap length : 00:01:38
    Track gain               : -0.17 dB
    Peak                     : 0.806030
    CRC32 hash (test run)    : 3C33D877
    CRC32 hash               : 3C33D877
    CRC32 hash (skip zero)   : 55F779F3
    AccurateRip v1 signature : 583AF5CC
    AccurateRip v2 signature : 2610AF5D
        ->Accurately ripped (v1+v2, confidence 5+3/8)
    Statistics
        Read error                           : 0
        Jitter error (maybe fixed)           : 0
        Retry sector count                   : 0
        Damaged sector count                 : 0
Track 11
    Filename : /Volumes/Seeding/Compilations - Fats Waller - The Last Years [1940-1943] (1989) [FLAC]/11 You're Gonna Be Sorry.flac
    Pre-gap length : 00:01:37
    Track gain               : -5.12 dB
    Peak                     : 0.777588
    CRC32 hash (test run)    : D850F202
    CRC32 hash               : D850F202
    CRC32 hash (skip zero)   : 381222B2
    AccurateRip v1 signature : BCDB2F8C
    AccurateRip v2 signature : EC7CDC4A
        ->Accurately ripped (v1+v2, confidence 6+3/9)
    Statistics
        Read error                           : 0
        Jitter error (maybe fixed)           : 0
        Retry sector count                   : 0
        Damaged sector count                 : 0
Track 12
    Filename : /Volumes/Seeding/Compilations - Fats Waller - The Last Years [1940-1943] (1989) [FLAC]/12 All That Meat And No Potatoes.flac
    Pre-gap length : 00:01:38
    Track gain               : -1.06 dB
    Peak                     : 0.806061
    CRC32 hash (test run)    : 5CE07154
    CRC32 hash               : 5CE07154
    CRC32 hash (skip zero)   : 19BE58E3
    AccurateRip v1 signature : 81E95AC9
    AccurateRip v2 signature : ACF4ACC7
        ->Accurately ripped (v1+v2, confidence 6+3/9)
    Statistics
        Read error                           : 0
        Jitter error (maybe fixed)           : 0
        Retry sector count                   : 0
        Damaged sector count                 : 0
Track 13
    Filename : /Volumes/Seeding/Compilations - Fats Waller - The Last Years [1940-1943] (1989) [FLAC]/13 Let's Get Away From It All.flac
    Pre-gap length : 00:01:38
    Track gain               : -0.55 dB
    Peak                     : 0.564514
    CRC32 hash (test run)    : 3C098C4D
    CRC32 hash               : 3C098C4D
    CRC32 hash (skip zero)   : 54ADE416
    AccurateRip v1 signature : 7584D0E8
    AccurateRip v2 signature : 8C407DAD
        ->Accurately ripped (v1+v2, confidence 6+3/9)
    Statistics
        Read error                           : 0
        Jitter error (maybe fixed)           : 0
        Retry sector count                   : 0
        Damaged sector count                 : 0
Track 14
    Filename : /Volumes/Seeding/Compilations - Fats Waller - The Last Years [1940-1943] (1989) [FLAC]/14 Twenty Four Robbers.flac
    Pre-gap length : 00:01:38
    Track gain               : 0.13 dB
    Peak                     : 0.812378
    CRC32 hash (test run)    : 638ECB99
    CRC32 hash               : 638ECB99
    CRC32 hash (skip zero)   : E8152320
    AccurateRip v1 signature : D1F06FDE
    AccurateRip v2 signature : A931A017
        ->Accurately ripped (v1+v2, confidence 6+3/9)
    Statistics
        Read error                           : 0
        Jitter error (maybe fixed)           : 0
        Retry sector count                   : 0
        Damaged sector count                 : 0
Track 15
    Filename : /Volumes/Seeding/Compilations - Fats Waller - The Last Years [1940-1943] (1989) [FLAC]/15 I Understand.flac
    Pre-gap length : 00:01:38
    Track gain               : 1.31 dB
    Peak                     : 0.741760
    CRC32 hash (test run)    : 6FC279F0
    CRC32 hash               : 6FC279F0
    CRC32 hash (skip zero)   : 53B95DC8
    AccurateRip v1 signature : 93C7AAE4
    AccurateRip v2 signature : 1B59AFAC
        ->Accurately ripped (v1+v2, confidence 5+3/8)
    Statistics
        Read error                           : 0
        Jitter error (maybe fixed)           : 0
        Retry sector count                   : 0
        Damaged sector count                 : 0
Track 16
    Filename : /Volumes/Seeding/Compilations - Fats Waller - The Last Years [1940-1943] (1989) [FLAC]/16 Sad Sap Sucker Am I.flac
    Pre-gap length : 00:01:37
    Track gain               : 0.12 dB
    Peak                     : 0.822449
    CRC32 hash (test run)    : 43E4456E
    CRC32 hash               : 43E4456E
    CRC32 hash (skip zero)   : D0A404A6
    AccurateRip v1 signature : 830D7FCD
    AccurateRip v2 signature : 3DF3CC71
        ->Accurately ripped (v1+v2, confidence 6+3/9)
    Statistics
        Read error                           : 0
        Jitter error (maybe fixed)           : 0
        Retry sector count                   : 0
        Damaged sector count                 : 0
Track 17
    Filename : /Volumes/Seeding/Compilations - Fats Waller - The Last Years [1940-1943] (1989) [FLAC]/17 Headlines In The News.flac
    Pre-gap length : 00:01:37
    Track gain               : -1.25 dB
    Peak                     : 0.935760
    CRC32 hash (test run)    : E300C376
    CRC32 hash               : E300C376
    CRC32 hash (skip zero)   : B183A2BE
    AccurateRip v1 signature : E0B01481
    AccurateRip v2 signature : ABF03AAB
        ->Accurately ripped (v1+v2, confidence 5+3/8)
    Statistics
        Read error                           : 0
        Jitter error (maybe fixed)           : 0
        Retry sector count                   : 0
        Damaged sector count                 : 0
Track 18
    Filename : /Volumes/Seeding/Compilations - Fats Waller - The Last Years [1940-1943] (1989) [FLAC]/18 Chant Of The Groove.flac
    Pre-gap length : 00:01:37
    Track gain               : -2.57 dB
    Peak                     : 0.654053
    CRC32 hash (test run)    : 8010951D
    CRC32 hash               : 8010951D
    CRC32 hash (skip zero)   : 3D9E1A0E
    AccurateRip v1 signature : 0C87F3DC
    AccurateRip v2 signature : 1FE9A3D6
        ->Accurately ripped (v1+v2, confidence 5+3/8)
    Statistics
        Read error                           : 0
        Jitter error (maybe fixed)           : 0
        Retry sector count                   : 0
        Damaged sector count                 : 0
Track 19
    Filename : /Volumes/Seeding/Compilations - Fats Waller - The Last Years [1940-1943] (1989) [FLAC]/19 Come And Get It.flac
    Pre-gap length : 00:01:37
    Track gain               : -1.78 dB
    Peak                     : 0.665100
    CRC32 hash (test run)    : A0EF20C4
    CRC32 hash               : A0EF20C4
    CRC32 hash (skip zero)   : DF1A2C09
    AccurateRip v1 signature : E1F37463
    AccurateRip v2 signature : 89C67E12
        ->Accurately ripped (v1+v2, confidence 5+3/8)
    Statistics
        Read error                           : 0
        Jitter error (maybe fixed)           : 0
        Retry sector count                   : 0
        Damaged sector count                 : 0
Track 20
    Filename : /Volumes/Seeding/Compilations - Fats Waller - The Last Years [1940-1943] (1989) [FLAC]/20 Rump Steak Serenade.flac
    Pre-gap length : 00:01:37
    Track gain               : -0.77 dB
    Peak                     : 0.604126
    CRC32 hash (test run)    : 37AE9775
    CRC32 hash               : 37AE9775
    CRC32 hash (skip zero)   : D2F9F53D
    AccurateRip v1 signature : 6C9A5E81
    AccurateRip v2 signature : 08D6504A
        ->Accurately ripped (v1+v2, confidence 5+3/8)
    Statistics
        Read error                           : 0
        Jitter error (maybe fixed)           : 0
        Retry sector count                   : 0
        Damaged sector count                 : 0
Track 21
    Filename : /Volumes/Seeding/Compilations - Fats Waller - The Last Years [1940-1943] (1989) [FLAC]/21 Ain't Nothin' To It.flac
    Pre-gap length : 00:01:37
    Track gain               : -2.28 dB
    Peak                     : 0.658600
    CRC32 hash (test run)    : 8072B391
    CRC32 hash               : 8072B391
    CRC32 hash (skip zero)   : 26BEAC89
    AccurateRip v1 signature : F3AB438B
    AccurateRip v2 signature : 8483B661
        ->Accurately ripped (v1+v2, confidence 5+3/8)
    Statistics
        Read error                           : 0
        Jitter error (maybe fixed)           : 0
        Retry sector count                   : 0
        Damaged sector count                 : 0
No errors occurred
End of status report
-----BEGIN XLD SIGNATURE-----
hvUJc7YLJWjyqJFv_E73xlKFWGjvykH._dEpnmjl6.QJWQBssk76CdnO4as0.1akbeDF0CpNTUKxRgC1xPoLSUY9iEijWB4AqwdiM.4
-----END XLD SIGNATURE-----
 
 
Содержание индексной карты (.CUE)
TITLE "The Last Years (1940-1943) CD2"
PERFORMER "Fats Waller"
REM GENRE "Jazz"
REM DATE "1989"
REM DISCID 5D0F0615
REM REPLAYGAIN_ALBUM_GAIN -2.14 dB
REM REPLAYGAIN_ALBUM_PEAK 0.935760
REM COMPILATION TRUE
FILE "01 - Mamacita.flac" WAVE
  TRACK 01 AUDIO
    TITLE "Mamacita"
    REM REPLAYGAIN_TRACK_GAIN 0.01 dB
    REM REPLAYGAIN_TRACK_PEAK 0.842651
    INDEX 01 00:00:00
  TRACK 02 AUDIO
    TITLE "Liver Lip Jones"
    REM REPLAYGAIN_TRACK_GAIN -1.60 dB
    REM REPLAYGAIN_TRACK_PEAK 0.631744
    INDEX 00 02:41:15
FILE "02 - Liver Lip Jones.flac" WAVE
    INDEX 01 00:00:00
  TRACK 03 AUDIO
    TITLE "Buckin' the Dice"
    REM REPLAYGAIN_TRACK_GAIN -5.98 dB
    REM REPLAYGAIN_TRACK_PEAK 0.783539
    INDEX 00 03:00:37
FILE "03 - Buckin' the Dice.flac" WAVE
    INDEX 01 00:00:00
  TRACK 04 AUDIO
    TITLE "Pantin' in the Panther Room"
    REM REPLAYGAIN_TRACK_GAIN -1.50 dB
    REM REPLAYGAIN_TRACK_PEAK 0.601471
    INDEX 00 03:28:00
FILE "04 - Pantin' in the Panther Room.flac" WAVE
    INDEX 01 00:00:00
  TRACK 05 AUDIO
    TITLE "Come Down to Earth, My Angel"
    REM REPLAYGAIN_TRACK_GAIN -0.99 dB
    REM REPLAYGAIN_TRACK_PEAK 0.677032
    INDEX 00 03:01:64
FILE "05 - Come Down to Earth, My Angel.flac" WAVE
    INDEX 01 00:00:00
  TRACK 06 AUDIO
    TITLE "Shortnin' Bread"
    REM REPLAYGAIN_TRACK_GAIN -4.45 dB
    REM REPLAYGAIN_TRACK_PEAK 0.727264
    INDEX 00 03:10:13
FILE "06 - Shortnin' Bread.flac" WAVE
    INDEX 01 00:00:00
  TRACK 07 AUDIO
    TITLE "I Repent"
    REM REPLAYGAIN_TRACK_GAIN -1.36 dB
    REM REPLAYGAIN_TRACK_PEAK 0.717621
    INDEX 00 02:39:00
FILE "07 - I Repent.flac" WAVE
    INDEX 01 00:00:00
  TRACK 08 AUDIO
    TITLE "Do You Have to Go?"
    REM REPLAYGAIN_TRACK_GAIN 2.09 dB
    REM REPLAYGAIN_TRACK_PEAK 0.717590
    INDEX 00 03:25:25
FILE "08 - Do You Have to Go.flac" WAVE
    INDEX 01 00:00:00
  TRACK 09 AUDIO
    TITLE "Pan-Pan"
    REM REPLAYGAIN_TRACK_GAIN -0.71 dB
    REM REPLAYGAIN_TRACK_PEAK 0.909424
    INDEX 00 03:16:40
FILE "09 - Pan-Pan.flac" WAVE
    INDEX 01 00:00:00
  TRACK 10 AUDIO
    TITLE "I Wanna Hear Swing Songs"
    REM REPLAYGAIN_TRACK_GAIN -0.17 dB
    REM REPLAYGAIN_TRACK_PEAK 0.806030
    INDEX 00 03:00:02
FILE "10 - I Wanna Hear Swing Songs.flac" WAVE
    INDEX 01 00:00:00
  TRACK 11 AUDIO
    TITLE "You're Gonna Be Sorry"
    REM REPLAYGAIN_TRACK_GAIN -5.12 dB
    REM REPLAYGAIN_TRACK_PEAK 0.777588
    INDEX 00 03:16:70
FILE "11 - You're Gonna Be Sorry.flac" WAVE
    INDEX 01 00:00:00
  TRACK 12 AUDIO
    TITLE "All That Meat and No Potatoes"
    REM REPLAYGAIN_TRACK_GAIN -1.06 dB
    REM REPLAYGAIN_TRACK_PEAK 0.806061
    INDEX 00 03:27:05
FILE "12 - All That Meat and No Potatoes.flac" WAVE
    INDEX 01 00:00:00
  TRACK 13 AUDIO
    TITLE "Let's Get Away from It All"
    REM REPLAYGAIN_TRACK_GAIN -0.55 dB
    REM REPLAYGAIN_TRACK_PEAK 0.564514
    INDEX 00 02:45:02
FILE "13 - Let's Get Away from It All.flac" WAVE
    INDEX 01 00:00:00
  TRACK 14 AUDIO
    TITLE "Twenty Four Robbers"
    REM REPLAYGAIN_TRACK_GAIN 0.13 dB
    REM REPLAYGAIN_TRACK_PEAK 0.812378
    INDEX 00 02:58:32
FILE "14 - Twenty Four Robbers.flac" WAVE
    INDEX 01 00:00:00
  TRACK 15 AUDIO
    TITLE "I Understand"
    REM REPLAYGAIN_TRACK_GAIN 1.31 dB
    REM REPLAYGAIN_TRACK_PEAK 0.741760
    INDEX 00 02:41:62
FILE "15 - I Understand.flac" WAVE
    INDEX 01 00:00:00
  TRACK 16 AUDIO
    TITLE "Sad Sap Sucker Am I"
    REM REPLAYGAIN_TRACK_GAIN 0.12 dB
    REM REPLAYGAIN_TRACK_PEAK 0.822449
    INDEX 00 03:09:20
FILE "16 - Sad Sap Sucker Am I.flac" WAVE
    INDEX 01 00:00:00
  TRACK 17 AUDIO
    TITLE "Headlines in the News"
    REM REPLAYGAIN_TRACK_GAIN -1.25 dB
    REM REPLAYGAIN_TRACK_PEAK 0.935760
    INDEX 00 03:01:58
FILE "17 - Headlines in the News.flac" WAVE
    INDEX 01 00:00:00
  TRACK 18 AUDIO
    TITLE "Chant of the Groove"
    REM REPLAYGAIN_TRACK_GAIN -2.57 dB
    REM REPLAYGAIN_TRACK_PEAK 0.654053
    INDEX 00 03:01:08
FILE "18 - Chant of the Groove.flac" WAVE
    INDEX 01 00:00:00
  TRACK 19 AUDIO
    TITLE "Come and Get It"
    REM REPLAYGAIN_TRACK_GAIN -1.78 dB
    REM REPLAYGAIN_TRACK_PEAK 0.665100
    INDEX 00 03:03:38
FILE "19 - Come and Get It.flac" WAVE
    INDEX 01 00:00:00
  TRACK 20 AUDIO
    TITLE "Rump Steak Serenade"
    REM REPLAYGAIN_TRACK_GAIN -0.77 dB
    REM REPLAYGAIN_TRACK_PEAK 0.604126
    INDEX 00 02:39:68
FILE "20 - Rump Steak Serenade.flac" WAVE
    INDEX 01 00:00:00
  TRACK 21 AUDIO
    TITLE "Ain't Nothin' to It"
    REM REPLAYGAIN_TRACK_GAIN -2.28 dB
    REM REPLAYGAIN_TRACK_PEAK 0.658600
    INDEX 00 02:38:38
FILE "21 - Ain't Nothin' to It.flac" WAVE
    INDEX 01 00:00:00
 
 
Отчет CUETools
[CUETools log; Date: 22.10.2014 1:01:27; Version: 2.1.5]
[CTDB TOCID: fq7Vr2IOO4VimEh7576WRO_h9io-] found.
Track | CTDB Status
  1   | (6/6) Accurately ripped
  2   | (6/6) Accurately ripped
  3   | (6/6) Accurately ripped
  4   | (6/6) Accurately ripped
  5   | (6/6) Accurately ripped
  6   | (6/6) Accurately ripped
  7   | (6/6) Accurately ripped
  8   | (6/6) Accurately ripped
  9   | (6/6) Accurately ripped
 10   | (6/6) Accurately ripped
 11   | (6/6) Accurately ripped
 12   | (6/6) Accurately ripped
 13   | (6/6) Accurately ripped
 14   | (6/6) Accurately ripped
 15   | (6/6) Accurately ripped
 16   | (6/6) Accurately ripped
 17   | (6/6) Accurately ripped
 18   | (6/6) Accurately ripped
 19   | (6/6) Accurately ripped
 20   | (6/6) Accurately ripped
 21   | (6/6) Accurately ripped
[AccurateRip ID: 0030edd2-02eddd02-5d0f0615] found.
Track   [  CRC   |   V2   ] Status
 01     [dd237482|4e6b013e] (4+3/7) Accurately ripped
 02     [93d721dd|a8beb4b8] (4+3/7) Accurately ripped
 03     [cf70fa2e|bab5e203] (5+3/8) Accurately ripped
 04     [2a030de8|7356ef18] (5+3/8) Accurately ripped
 05     [887a2037|896b6648] (6+3/9) Accurately ripped
 06     [ea851f8b|976d8ade] (6+3/9) Accurately ripped
 07     [f8035bb5|e44284bc] (5+3/8) Accurately ripped
 08     [c7ce97a0|13a37e24] (5+3/8) Accurately ripped
 09     [ebcd092c|19b61c86] (5+3/8) Accurately ripped
 10     [583af5cc|2610af5d] (5+3/8) Accurately ripped
 11     [bcdb2f8c|ec7cdc4a] (6+3/9) Accurately ripped
 12     [81e95ac9|acf4acc7] (6+3/9) Accurately ripped
 13     [7584d0e8|8c407dad] (6+3/9) Accurately ripped
 14     [d1f06fde|a931a017] (6+3/9) Accurately ripped
 15     [93c7aae4|1b59afac] (5+3/8) Accurately ripped
 16     [830d7fcd|3df3cc71] (6+3/9) Accurately ripped
 17     [e0b01481|abf03aab] (5+3/8) Accurately ripped
 18     [0c87f3dc|1fe9a3d6] (5+3/8) Accurately ripped
 19     [e1f37463|89c67e12] (5+3/8) Accurately ripped
 20     [6c9a5e81|08d6504a] (5+3/8) Accurately ripped
 21     [f3ab438b|8483b661] (5+3/8) Accurately ripped
Track Peak [ CRC32  ] [W/O NULL]
 --   93,5 [63301E98] [1571F622]
 01   84,2 [50817534] [F7FA4216]
 02   63,1 [8A174A8C] [08FDFEDD]
 03   78,3 [BB502073] [6B793489]
 04   60,1 [BC2C689C] [5A83555C]
 05   67,7 [994983AD] [D395F08E]
 06   72,7 [E0CFC08B] [240177E9]
 07   71,7 [6A437C37] [59282F4D]
 08   71,7 [5127055E] [A9E67D39]
 09   90,9 [33596D93] [A3F6C81A]
 10   80,6 [3C33D877] [55F779F3]
 11   77,7 [D850F202] [381222B2]
 12   80,6 [5CE07154] [19BE58E3]
 13   56,4 [3C098C4D] [54ADE416]
 14   81,2 [638ECB99] [E8152320]
 15   74,1 [6FC279F0] [53B95DC8]
 16   82,2 [43E4456E] [D0A404A6]
 17   93,5 [E300C376] [B183A2BE]
 18   65,4 [8010951D] [3D9E1A0E]
 19   66,5 [A0EF20C4] [DF1A2C09]
 20   60,4 [37AE9775] [D2F9F53D]
 21   65,8 [8072B391] [26BEAC89]
 
 
CD3 {62:33}
01. Oh Baby, Sweet Baby (2:49)
02. Buck Jumpin' (2:38)
03. That Gets It, Mr. Joe (2:47)
04. The Bells of San Raquel (2:41)
05. Bessie, Bessie, Bessie (3:00)
06. Clarinet Marmalade (2:44)
07. Winter Weather (3:18)
08. Cash for Your Trash (3:23)
09. Don't Give Me That Jive (2:50)
10. Your Socks Don't Match (3:06)
11. We Need a Little Love (3:21)
12. You Must Be Losing Your Mind (2:33)
13. Really Fine (3:11)
14. The Jitterbug Waltz (3:22)
15. By the Light of the Silvery Moon (3:12)
16. Swing Out to Victory (2:35)
17. Up Jumped You with Love (3:17)
18. Romance a la Mode (3:20)
19. Moppin' and Boppin' (4:29)
20. Ain't Misbehavin' (3:57)
 
 
Лог создания рипа
X Lossless Decoder version 20131102 (145.0)
XLD extraction logfile from 2014-10-18 08:17:08 -0700
Fats Waller / The Last Years [1940-1943]
Used drive : HL-DT-ST DVDRAM GP10NB20 (revision 1.04)
Media type : Pressed CD
Ripper mode             : XLD Secure Ripper
Disable audio cache     : OK for the drive with a cache less than 1375KiB
Make use of C2 pointers : NO
Read offset correction  : 6
Max retry count         : 100
Gap status              : Analyzed, Appended (except HTOA)
TOC of the extracted CD
     Track |   Start  |  Length  | Start sector | End sector
    ---------------------------------------------------------
        1  | 00:00:00 | 02:49:00 |         0    |    12674
        2  | 02:49:00 | 02:37:40 |     12675    |    24489
        3  | 05:26:40 | 02:46:40 |     24490    |    36979
        4  | 08:13:05 | 02:41:33 |     36980    |    49087
        5  | 10:54:38 | 03:00:20 |     49088    |    62607
        6  | 13:54:58 | 02:44:35 |     62608    |    74942
        7  | 16:39:18 | 03:17:50 |     74943    |    89767
        8  | 19:56:68 | 03:23:07 |     89768    |   104999
        9  | 23:20:00 | 02:50:30 |    105000    |   117779
       10  | 26:10:30 | 03:05:58 |    117780    |   131712
       11  | 29:16:13 | 03:21:22 |    131713    |   146809
       12  | 32:37:35 | 02:32:73 |    146810    |   158282
       13  | 35:10:33 | 03:11:07 |    158283    |   172614
       14  | 38:21:40 | 03:22:10 |    172615    |   187774
       15  | 41:43:50 | 03:12:23 |    187775    |   202197
       16  | 44:55:73 | 02:34:60 |    202198    |   213807
       17  | 47:30:58 | 03:17:27 |    213808    |   228609
       18  | 50:48:10 | 03:19:50 |    228610    |   243584
       19  | 54:07:60 | 04:29:35 |    243585    |   263794
       20  | 58:37:20 | 03:56:60 |    263795    |   281554
List of alternate offset correction values
        #  | Absolute | Relative | Confidence
    ------------------------------------------
        1  |    -16   |    -22   |      4
AccurateRip Summary (DiscID: 002ac96f-0279cb95-140eaa14)
    Track 01 : OK (v1, confidence 2/4)
    Track 02 : OK (v1, confidence 2/4)
    Track 03 : OK (v1, confidence 3/5)
    Track 04 : OK (v1, confidence 2/4)
    Track 05 : OK (v1, confidence 3/5)
    Track 06 : OK (v1, confidence 3/5)
    Track 07 : OK (v1, confidence 3/5)
    Track 08 : OK (v1, confidence 2/4)
    Track 09 : OK (v1, confidence 4/6)
    Track 10 : OK (v1, confidence 4/6)
Any questions -> support@pro-jazz.com. По всем вопросам пишите -> support@pro-jazz.com
16:05
419
Нет комментариев. Ваш будет первым!