2015 Adele - 25 (Target Deluxe Edition)

2015 Adele - 25 (Target Deluxe Edition)
Стили:
Страна-производитель диска (релиза):
USA
Дата издания диска:
20 ноября 2015
Издатель (лейбл):
Номер по каталогу:
88875176782
Носитель:
CD
Битрейт аудио:
lossless
Аудиокодек:
FLAC (*.flac)
Тип рипа:
tracks+.cue
Время звучания:
01:00:06
Наличие сканов:
  • нет
Релизёр (источник):
What.cd (b3772)
Треклист:
01. Hello (4:55)
02. Send My Love (To Your New Lover) (3:43)
03. I Miss You (5:49)
04. When We Were Young (4:51)
05. Remedy (4:05)
06. Water Under The Bridge (4:00)
07. River Lea (3:45)
08. Love In The Dark (4:46)
09. Million Years Ago (3:47)
10. All I Ask (4:32)
11. Sweetest Devotion (4:12)
12. Can't Let Go (3:18)
13. Lay Me Down (4:30)
14. Why Do You Love Me (3:59)
Exact Audio Copy V1.1 from 23. June 2015
EAC extraction logfile from 20. November 2015, 10:02
Adele / 25
Used drive : TSSTcorpBDDVDW SE-506CB Adapter: 1 ID: 0
Read mode : Secure
Utilize accurate stream : Yes
Defeat audio cache : Yes
Make use of C2 pointers : No
Read offset correction : 6
Overread into Lead-In and Lead-Out : No
Fill up missing offset samples with silence : Yes
Delete leading and trailing silent blocks : No
Null samples used in CRC calculations : Yes
Used interface : Native Win32 interface for Win NT & 2000
Gap handling : Appended to previous track
Used output format : User Defined Encoder
Selected bitrate : 1024 kBit/s
Quality : High
Add ID3 tag : No
Command line compressor : C:\Program Files (x86)\Exact Audio Copy\FLAC\FLAC.EXE
Additional command line options : -8 -V -T "ARTIST=%artist%" -T "TITLE=%title%" -T "ALBUM=%albumtitle%" -T "DATE=%year%" -T "TRACKNUMBER=%tracknr%" -T "GENRE=%genre%" -T "PERFORMER=%albuminterpret%" -T "COMPOSER=%composer%" %haslyrics%--tag-from-file=LYRICS="%lyricsfile%"%haslyrics% -T "ALBUMARTIST=%albumartist%" -T "DISCNUMBER=%cdnumber%" -T "TOTALDISCS=%totalcds%" -T "TOTALTRACKS=%numtracks%" -T "COMMENT=%comment%" %source% -o %dest%
TOC of the extracted CD Track | Start | Length | Start sector | End sector --------------------------------------------------------- 1 | 0:00.00 | 4:55.37 | 0 | 22161 2 | 4:55.37 | 3:43.06 | 22162 | 38892 3 | 8:38.43 | 5:48.47 | 38893 | 65039 4 | 14:27.15 | 4:50.68 | 65040 | 86857 5 | 19:18.08 | 4:05.32 | 86858 | 105264 6 | 23:23.40 | 4:00.32 | 105265 | 123296 7 | 27:23.72 | 3:45.32 | 123297 | 140203 8 | 31:09.29 | 4:45.71 | 140204 | 161649 9 | 35:55.25 | 3:47.05 | 161650 | 178679 10 | 39:42.30 | 4:31.60 | 178680 | 199064 11 | 44:14.15 | 4:11.52 | 199065 | 217941 12 | 48:25.67 | 3:18.27 | 217942 | 232818 13 | 51:44.19 | 4:30.30 | 232819 | 253098 14 | 56:14.49 | 3:58.67 | 253099 | 271015
Track 1 Filename Z:\Adele - 25 (2015)\01 Hello.wav Pre-gap length 0:00:02.00 Peak level 99.8 % Extraction speed 1.3 X Track quality 99.9 % Test CRC C3600BB9 Copy CRC C3600BB9 Track not present in AccurateRip database Copy OK
Track 2 Filename Z:\Adele - 25 (2015)\02 Send My Love (To Your New Lover).wav Peak level 99.8 % Extraction speed 1.2 X Track quality 99.9 % Test CRC 1401C8A2 Copy CRC 1401C8A2 Track not present in AccurateRip database Copy OK
Track 3 Filename Z:\Adele - 25 (2015)\03 I Miss You.wav Peak level 99.8 % Extraction speed 1.6 X Track quality 100.0 % Test CRC 70232895 Copy CRC 70232895 Track not present in AccurateRip database Copy OK
Track 4 Filename Z:\Adele - 25 (2015)\04 When We Were Young.wav Peak level 99.8 % Extraction speed 1.8 X Track quality 100.0 % Test CRC 2A827CE7 Copy CRC 2A827CE7 Track not present in AccurateRip database Copy OK
Track 5 Filename Z:\Adele - 25 (2015)\05 Remedy.wav Peak level 99.8 % Extraction speed 1.8 X Track quality 100.0 % Test CRC 3846EA4B Copy CRC 3846EA4B Track not present in AccurateRip database Copy OK
Track 6 Filename Z:\Adele - 25 (2015)\06 Water Under the Bridge.wav Peak level 95.3 % Extraction speed 1.9 X Track quality 100.0 % Test CRC 5CC1BC9C Copy CRC 5CC1BC9C Track not present in AccurateRip database Copy OK
Track 7 Filename Z:\Adele - 25 (2015)\07 River Lea.wav Peak level 99.8 % Extraction speed 1.7 X Track quality 99.9 % Test CRC 0A1C6481 Copy CRC 0A1C6481 Track not present in AccurateRip database Copy OK
Track 8 Filename Z:\Adele - 25 (2015)\08 Love in the Dark.wav Peak level 99.8 % Extraction speed 2.1 X Track quality 100.0 % Test CRC C9BE84E5 Copy CRC C9BE84E5 Track not present in AccurateRip database Copy OK
Track 9 Filename Z:\Adele - 25 (2015)\09 Million Years Ago.wav Peak level 99.8 % Extraction speed 1.9 X Track quality 99.9 % Test CRC 9C3C96B0 Copy CRC 9C3C96B0 Track not present in AccurateRip database Copy OK
Track 10 Filename Z:\Adele - 25 (2015)\10 All I Ask.wav Peak level 99.8 % Extraction speed 2.3 X Track quality 100.0 % Test CRC EB7118D3 Copy CRC EB7118D3 Track not present in AccurateRip database Copy OK
Track 11 Filename Z:\Adele - 25 (2015)\11 Sweetest Devotion.wav Peak level 99.8 % Extraction speed 2.3 X Track quality 100.0 % Test CRC 8010A8ED Copy CRC 8010A8ED Track not present in AccurateRip database Copy OK
Track 12 Filename Z:\Adele - 25 (2015)\12 Can't Let Go.wav Peak level 99.8 % Extraction speed 2.3 X Track quality 100.0 % Test CRC B57BA76C Copy CRC B57BA76C Track not present in AccurateRip database Copy OK
Track 13 Filename Z:\Adele - 25 (2015)\13 Lay Me Down.wav Peak level 99.8 % Extraction speed 2.5 X Track quality 100.0 % Test CRC 4111E4DA Copy CRC 4111E4DA Track not present in AccurateRip database Copy OK
Track 14 Filename Z:\Adele - 25 (2015)\14 Why Do You Love Me.wav Peak level 99.8 % Extraction speed 2.5 X Track quality 100.0 % Test CRC 1EAC6230 Copy CRC 1EAC6230 Track not present in AccurateRip database Copy OK
None of the tracks are present in the AccurateRip database
No errors occurred
End of status report
---- CUETools DB Plugin V2.1.6
[CTDB TOCID: WICJNHtdAYs7lBWzx.R0x1O342M-] found
Submit result: WICJNHtdAYs7lBWzx.R0x1O342M- has been confirmed
Track | CTDB Status 1 | (2/2) Accurately ripped 2 | (2/2) Accurately ripped 3 | (2/2) Accurately ripped 4 | (2/2) Accurately ripped 5 | (2/2) Accurately ripped 6 | (2/2) Accurately ripped 7 | (2/2) Accurately ripped 8 | (2/2) Accurately ripped 9 | (2/2) Accurately ripped 10 | (2/2) Accurately ripped 11 | (2/2) Accurately ripped 12 | (2/2) Accurately ripped 13 | (2/2) Accurately ripped 14 | (2/2) Accurately ripped
==== Log checksum C9B05BBE32084BF9985722161709300CA2B1C4151E9C988C34F6016BF8C90284 ====
REM GENRE Pop
REM DATE 2015
REM DISCID C70E1D0E
REM COMMENT "ExactAudioCopy v1.1"
PERFORMER "Adele"
TITLE "25"
FILE "01 Hello.flac" WAVE TRACK 01 AUDIO TITLE "Hello" PERFORMER "Adele" ISRC GBBKS1500214 INDEX 01 00:00:00
FILE "02 Send My Love (To Your New Lover).flac" WAVE TRACK 02 AUDIO TITLE "Send My Love (To Your New Lover)" PERFORMER "Adele" ISRC GBBKS1500215 INDEX 01 00:00:00
FILE "03 I Miss You.flac" WAVE TRACK 03 AUDIO TITLE "I Miss You" PERFORMER "Adele" ISRC GBBKS1500216 INDEX 01 00:00:00
FILE "04 When We Were Young.flac" WAVE TRACK 04 AUDIO TITLE "When We Were Young" PERFORMER "Adele" ISRC GBBKS1500217 INDEX 01 00:00:00
FILE "05 Remedy.flac" WAVE TRACK 05 AUDIO TITLE "Remedy" PERFORMER "Adele" ISRC GBBKS1500218 INDEX 01 00:00:00
FILE "06 Water Under the Bridge.flac" WAVE TRACK 06 AUDIO TITLE "Water Under the Bridge" PERFORMER "Adele" ISRC GBBKS1500219 INDEX 01 00:00:00
FILE "07 River Lea.flac" WAVE TRACK 07 AUDIO TITLE "River Lea" PERFORMER "Adele" ISRC GBBKS1500220 INDEX 01 00:00:00
FILE "08 Love in the Dark.flac" WAVE TRACK 08 AUDIO TITLE "Love in the Dark" PERFORMER "Adele" ISRC GBBKS1500221 INDEX 01 00:00:00
FILE "09 Million Years Ago.flac" WAVE TRACK 09 AUDIO TITLE "Million Years Ago" PERFORMER "Adele" ISRC GBBKS1500221 INDEX 01 00:00:00
FILE "10 All I Ask.flac" WAVE TRACK 10 AUDIO TITLE "All I Ask" PERFORMER "Adele" ISRC GBBKS1500223 INDEX 01 00:00:00
FILE "11 Sweetest Devotion.flac" WAVE TRACK 11 AUDIO TITLE "Sweetest Devotion" PERFORMER "Adele" ISRC GBBKS1500224 INDEX 01 00:00:00
FILE "12 Can't Let Go.flac" WAVE TRACK 12 AUDIO TITLE "Can't Let Go" PERFORMER "Adele" ISRC GBBKS1500225 INDEX 01 00:00:00
FILE "13 Lay Me Down.flac" WAVE TRACK 13 AUDIO TITLE "Lay Me Down" PERFORMER "Adele" ISRC GBBKS1500226 INDEX 01 00:00:00
FILE "14 Why Do You Love Me.flac" WAVE TRACK 14 AUDIO TITLE "Why Do You Love Me" PERFORMER "Adele" ISRC GBBKS1500240 INDEX 01 00:00:00
Приватный Нет (DHT включён)
Хэш 1D1D50758657A056B9749A0F77FCCE2D9AFD9AD5
Размер 354.69 Мб (371,922,205 байт) » файлов: 17 [ Список файлов ]
Участники 0 раздают, 0 качают (0 участников всего)
Внешние участники 34 раздают, 11 качают (45 участников всего)
Скорость Сейчас никто не качает
04:11
75
RSS
Нет комментариев. Ваш будет первым!