Поиск

2010 Ray Anderson - Marty Ehrlich Quartet - Hear You Say (Live in Willisau) {Intuition 71303}

2010 Ray Anderson - Marty Ehrlich Quartet - Hear You Say (Live in Willisau) {Intuition 71303}
Страна-производитель диска (релиза):
Germany
Дата записи диска:
29 августа 2009
Дата издания диска:
9 ноября 2010
Издатель (лейбл):
Номер по каталогу:
INTCHR71303
Носитель:
CD
Битрейт аудио:
lossless
Аудиокодек:
FLAC (*.flac)
Тип рипа:
image+.cue
Время звучания:
01:03:06
Наличие сканов:
  • нет
Релизёр (источник):
ivoronen

Треклист:

1.    Portrait Of Leroy Jenkins    13:11
2.    Hot Crab Pot    11:01
3.    My Wish    6:55
4.    The Lion's Tanz    4:45
5.    The Git Go    6:58
6.    Alligatory Rhumba    11:19
7.    Hear You Say    8:57

Состав:
  • Ray Anderson    Composer, Trombone
  • Peter Buerli    Engineer
  • Marty Ehrlich    Clarinet, Composer, Sax (Alto), Sax (Soprano)
  • Brad Jones    Bass
  • Brian Montgomery    Editing, Mastering, Mixing
  • Gene Santoro    Liner Notes
  • Matt Wilson    Drums

Recorded live by Schweizer Radio DRS2, August 29, 2009 at Jazz Festival Willisau, Switzerland.

Лог создания рипа
Exact Audio Copy V0.99 prebeta 4 from 23. January 2008

EAC extraction logfile from 2. November 2010, 23:04

The Ray Anderson / Martry Ehrlich Quartet / Hear You Say

Used drive  : TSSTcorpCD/DVDW SH-S182M   Adapter: 2  ID: 0

Read mode               : Secure
Utilize accurate stream : Yes
Defeat audio cache      : Yes
Make use of C2 pointers : No

Read offset correction                      : 6
Overread into Lead-In and Lead-Out          : No
Fill up missing offset samples with silence : Yes
Delete leading and trailing silent blocks   : No
Null samples used in CRC calculations       : Yes
Used interface                              : Installed external ASPI interface

Used output format              : User Defined Encoder
Selected bitrate                : 1024 kBit/s
Quality                         : High
Add ID3 tag                     : No
Command line compressor         : C:\Program Files\Exact Audio Copy\Flac\flac.exe
Additional command line options : -6 -V -T "ARTIST=%a" -T "TITLE=%t" -T "ALBUM=%g" -T "DATE=%y" -T "TRACKNUMBER=%n" -T "GENRE=%m" -T "COMMENT=EAC FLAC -6" %s

TOC of the extracted CD

     Track |   Start  |  Length  | Start sector | End sector
    ---------------------------------------------------------
        1  |  0:00.00 | 13:11.02 |         0    |    59326
        2  | 13:11.02 | 11:01.17 |     59327    |   108918
        3  | 24:12.19 |  6:54.72 |    108919    |   140040
        4  | 31:07.16 |  4:45.36 |    140041    |   161451
        5  | 35:52.52 |  6:57.67 |    161452    |   192793
        6  | 42:50.44 | 11:18.64 |    192794    |   243707
        7  | 54:09.33 |  8:56.69 |    243708    |   283976

Range status and errors

Selected range

     Filename C:\Users\Igor\Music\eac\The Ray Anderson Martry Ehrlich Quartet - Hear You Say.wav

     Peak level 100.0 %
     Range quality 100.0 %
     Test CRC F6E323BA
     Copy CRC F6E323BA
     Copy OK

No errors occurred

AccurateRip summary

Track  1  not present in database
Track  2  not present in database
Track  3  not present in database
Track  4  not present in database
Track  5  not present in database
Track  6  not present in database
Track  7  not present in database

None of the tracks are present in the AccurateRip database

End of status report
Приватный:
Нет (DHT включён)
Размер:
404.73 Мб (424,388,887 байт) » файлов: 6
Участники:
0 раздают, 0 качают (0 участников всего)
Внешние участники:
2 раздают, 1 качают (3 участников всего) [ Обновить ]
23:13
103
RSS
Нет комментариев. Ваш будет первым!