Поиск

1996 The Tom Kubis Big Band (plays Steve Allen) - Fast Cars & Fascinating Women {Sea Breeze SB-2079}

1996 The Tom Kubis Big Band (plays Steve Allen) - Fast Cars & Fascinating Women {Sea Breeze SB-2079}
Стили:
Страна-производитель диска (релиза):
USA
Дата издания диска:
1996
Издатель (лейбл):
Номер по каталогу:
SB-2079
Носитель:
CD
Битрейт аудио:
lossless
Аудиокодек:
FLAC (*.flac)
Тип рипа:
image+.cue
Время звучания:
01:09:52
Наличие сканов:
  • да
Релизёр (источник):
PCWhizzkid
Треклист:

01. Fast Cars & Fascinating Women
02. Zamba
03. Step This Way, Sir
04. In Memory of Bix
05. The Girl Can't Help It
06. The Bluest Blues
07. I'm Kinda Crazy
08. Bahia Yodel
09. Certain Nights I Have the Blues
10. I'm Gonna Tell
11. Say That Again
12. Samba de Else
13. I've Got to Get Another Baby
14. The 5000th Song
15. Downtown Clown
16. Street Strut

Состав:

Tom Kubis (flute, soprano saxophone, tenor saxophone);
Steve Allen (vocals);
Michael Higgins (guitar);
Sal Lozano (alto saxophone);
Rusty Higgins, Bill Liston (tenor saxophone);
Brian Williams (baritone saxophone);
George Graham, Stan "Be Bop" Martin, Jeff Bunnell, Wayne Bergeron, Ron Stout (trumpet);
Charlie Morillas, Andy Martin, Alexander Iles (trombone);
John Levy, Richard Bullock (bass trombone);
Jack Reidling (piano);
Matt Johnson (drums);
Kurt Rasmussen (percussion)

All words and music by Steve Allen
All arrangements by Tom Kubis

Exact Audio Copy V1.0 beta 1 from 15. November 2010EAC extraction logfile from 28. April 2011, 16:00Tom Kubis Big Band / Fast Cars & Fascinating WomenUsed drive: HL-DT-STDVDRAM GH22NS40 Adapter: 2 ID: 0Read mode: SecureUtilize accurate stream: YesDefeat audio cache: YesMake use of C2 pointers: NoRead offset correction: 667Overread into Lead-In and Lead-Out: NoFill up missing offset samples with silence: YesDelete leading and trailing silent blocks: NoNull samples used in CRC calculations: YesUsed interface: Native Win32 interface for Win NT & 2000Used output format: User Defined EncoderSelected bitrate: 1024 kBit/sQuality: HighAdd ID3 tag: NoCommand line compressor: C:\Program Files (x86)\Exact Audio Copy\FLAC\FLAC.EXEAdditional command line options: -6 -V -T «ARTIST=%a» -T «TITLE=%t» -T «ALBUM=%g» -T «DATE=%y» -T «TRACKNUMBER=%n» -T «GENRE=%m» -T «COMMENT=%e» %j--picture="%i"%j %s -o %dTOC of the extracted CD Track | Start | Length | Start sector | End sector — 1 | 0:00.30 | 4:05.73 | 30 | 18477 2 | 4:06.28 | 5:00.74 | 18478 | 41051 3 | 9:07.27 | 3:50.48 | 41052 | 58349 4 | 12:58.00 | 4:18.36 | 58350 | 77735 5 | 17:16.36 | 3:26.50 | 77736 | 93235 6 | 20:43.11 | 4:46.57 | 93236 | 114742 7 | 25:29.68 | 4:27.71 | 114743 | 134838 8 | 29:57.64 | 4:38.37 | 134839 | 155725 9 | 34:36.26 | 5:03.42 | 155726 | 178492 10 | 39:39.68 | 4:08.11 | 178493 | 197103 11 | 43:48.04 | 3:18.40 | 197104 | 211993 12 | 47:06.44 | 4:56.16 | 211994 | 234209 13 | 52:02.60 | 5:58.26 | 234210 | 261085 14 | 58:01.11 | 3:34.59 | 261086 | 277194 15 | 61:35.70 | 4:31.00 | 277195 | 297519 16 | 66:06.70 | 3:46.07 | 297520 | 314476Range status and errorsSelected range Filename T:\Tom Kubis Big Band — Fast Cars & Fascinating Women.wav Peak level 100.0 % Extraction speed 0.1 X Range quality 100.0 % Test CRC C238C12A Copy CRC C238C12A Copy OKNo errors occurredAccurateRip summaryTrack 1 not present in databaseTrack 2 cannot be verified as accurate (confidence 1) [246DA217], AccurateRip returned [57A473DB]Track 3 cannot be verified as accurate (confidence 1) [A4DD5777], AccurateRip returned [2D44B1B5]Track 4 cannot be verified as accurate (confidence 1) [BAF09C5C], AccurateRip returned [AD8D18C6]Track 5 cannot be verified as accurate (confidence 1) [93C0C6CC], AccurateRip returned [9F8EE92B]Track 6 cannot be verified as accurate (confidence 1) [8D0BC146], AccurateRip returned [B72E6E96]Track 7 accurately ripped (confidence 1) [F6ED2A4E]Track 8 cannot be verified as accurate (confidence 1) [E7A1E489], AccurateRip returned [6A5ACFFF]Track 9 accurately ripped (confidence 1) [B2E35075]Track 10 cannot be verified as accurate (confidence 1) [FBA6B006], AccurateRip returned [E4463E9C]Track 11 accurately ripped (confidence 1) [AD011DE1]Track 12 accurately ripped (confidence 1) [59EAB5C5]Track 13 cannot be verified as accurate (confidence 1) [FD876074], AccurateRip returned [0CCF5D7D]Track 14 cannot be verified as accurate (confidence 1) [E49D78A3], AccurateRip returned [210DA8FF]Track 15 accurately ripped (confidence 1) [2778D3D3]Track 16 cannot be verified as accurate (confidence 1) [5FA109C7], AccurateRip returned [6ED0F594] 5 track(s) accurately ripped10 track(s) could not be verified as accurate 1 track(s) not present in the AccurateRip databaseSome tracks could not be verified as accurateEnd of status report==== Log checksum 9125CB1F88825E53FF3A2A497F57D22F3D2443F60F7938537CC8BB9F14ECBD21 ====
REM GENRE Jazz
REM DATE 1996
REM DISCID FA106110
REM COMMENT "ExactAudioCopy v1.0b1"
PERFORMER "Tom Kubis Big Band"
TITLE "Fast Cars & Fascinating Women"
FILE "Tom Kubis Big Band - Fast Cars & Fascinating Women.flac" WAVE TRACK 01 AUDIO TITLE "Fast Cars and Fascinating Women" PERFORMER "Tom Kubis Big Band" INDEX 00 00:00:00 INDEX 01 00:00:30 TRACK 02 AUDIO TITLE "Zamba" PERFORMER "Tom Kubis Big Band" INDEX 01 04:06:28 TRACK 03 AUDIO TITLE "Step This Way, Sir" PERFORMER "Tom Kubis Big Band" INDEX 01 09:07:27 TRACK 04 AUDIO TITLE "In Memory Of Bix" PERFORMER "Tom Kubis Big Band" INDEX 01 12:58:00 TRACK 05 AUDIO TITLE "The Girl Can't Help It" PERFORMER "Tom Kubis Big Band" INDEX 01 17:16:36 TRACK 06 AUDIO TITLE "The Bluest Blues" PERFORMER "Tom Kubis Big Band" INDEX 01 20:43:11 TRACK 07 AUDIO TITLE "I'm Kinda Crazy" PERFORMER "Tom Kubis Big Band" INDEX 01 25:29:68 TRACK 08 AUDIO TITLE "Bahia Yodel" PERFORMER "Tom Kubis Big Band" INDEX 01 29:57:64 TRACK 09 AUDIO TITLE "Certain Nights I Have The Blues" PERFORMER "Tom Kubis Big Band" INDEX 01 34:36:26 TRACK 10 AUDIO TITLE "I'm Gonna Tell" PERFORMER "Tom Kubis Big Band" INDEX 01 39:39:68 TRACK 11 AUDIO TITLE "Say That Again" PERFORMER "Tom Kubis Big Band" INDEX 01 43:48:04 TRACK 12 AUDIO TITLE "Samba De Else" PERFORMER "Tom Kubis Big Band" INDEX 01 47:06:44 TRACK 13 AUDIO TITLE "I've Got To Get Another Baby" PERFORMER "Tom Kubis Big Band" INDEX 01 52:02:60 TRACK 14 AUDIO TITLE "The 5000th Song" PERFORMER "Tom Kubis Big Band" INDEX 01 58:01:11 TRACK 15 AUDIO TITLE "Downtown Clown" PERFORMER "Tom Kubis Big Band" INDEX 01 61:35:70 TRACK 16 AUDIO TITLE "Street Strut" PERFORMER "Tom Kubis Big Band" INDEX 01 66:06:70
19:24
39
RSS
Нет комментариев. Ваш будет первым!