Поиск

1990 Barbara Dennerlein — Hot Stuff {enja 6050 2}

1990 Barbara Dennerlein — Hot Stuff {enja 6050 2}
Стили:
Дата записи диска:
6-8 июня 1990
Дата издания диска:
1 ноября 1991
Дата переиздания диска:
2002
Издатель (лейбл):
Номер по каталогу:
6050 2
Носитель:
CD
Битрейт аудио:
lossless
Аудиокодек:
FLAC (*.flac)
Тип рипа:
tracks
Время звучания:
57:55
Наличие сканов:
  • web
Релизёр (источник):
JanV

Треклист:

1. Hot Stuff 10:02
2. Wow! 6:56
3. Top Secret 5:58
4. Birthday Blues 3:26
5. Polar Lights 9:46
6. Killer Joe 6:31
7. My Invitation 5:54
8. Seven Steps To Heaven 5:18
9. Toscanian Sunset 3:48

Состав:
  • Carlos Albrecht Engineer, Mix
  • Barbara Dennerlein Composer, Footpedal Bass, Guitar, Liner Notes, Organ, Synthesizer
  • Mark Mondesir Drums
  • Andy Sheppard Sax (Tenor)
  • Mitch Watkins Guitar
  • Matthias Winckelmann Producer
Лог создания рипа
Отчёт EAC об извлечении, выполненном 25. ноября 2007, 20:44 для диска:
Barbara Dennerlein / Hot Stuff
Дисковод: TSSTcorpCDDVDW SH-S203D Adapter: 2 ID: 1
Режим чтения: Скоростной
Коррекция смещения при чтении: 0
Способность читать области Lead-in и Lead-out : Нет
Выходной формат: Внутренние WAV-операции 44.100 Гц; 16 бит; стерео
Другие параметры: Заполнение пропущенных сэмплов тишиной : Да Удаление блоков с тишиной в начале и конце : Нет Встроенный Win32-интерфейс для Win NT/2000
Трек 1 Имя файла C:\Documents and Settings\Andreas\Мои документы\Моя музыка\EACtemp\01 - Hot Stuff.wav Пиковый уровень 100.0 % CRC теста 6954B7EB CRC копии 6954B7EB Копирование... OK
Трек 2 Имя файла C:\Documents and Settings\Andreas\Мои документы\Моя музыка\EACtemp\02 - Wow!.wav Пиковый уровень 100.0 % CRC теста 7F612428 CRC копии 7F612428 Копирование... OK
Трек 3 Имя файла C:\Documents and Settings\Andreas\Мои документы\Моя музыка\EACtemp\03 - Top Secret.wav Пиковый уровень 100.0 % CRC теста 62BE51E9 CRC копии 62BE51E9 Копирование... OK
Трек 4 Имя файла C:\Documents and Settings\Andreas\Мои документы\Моя музыка\EACtemp\04 - Birthday Blues.wav Пиковый уровень 100.0 % CRC теста D284A449 CRC копии D284A449 Копирование... OK
Трек 5 Имя файла C:\Documents and Settings\Andreas\Мои документы\Моя музыка\EACtemp\05 - Polar Lights.wav Пиковый уровень 100.0 % CRC теста EA048434 CRC копии EA048434 Копирование... OK
Трек 6 Имя файла C:\Documents and Settings\Andreas\Мои документы\Моя музыка\EACtemp\06 - Killer Joe.wav Пиковый уровень 100.0 % CRC теста 4445CD7F CRC копии 4445CD7F Копирование... OK
Трек 7 Имя файла C:\Documents and Settings\Andreas\Мои документы\Моя музыка\EACtemp\07 - My Invitation.wav Пиковый уровень 98.8 % CRC теста 6CE3237D CRC копии 6CE3237D Копирование... OK
Трек 8 Имя файла C:\Documents and Settings\Andreas\Мои документы\Моя музыка\EACtemp\08 - Seven Steps to Heaven.wav Пиковый уровень 100.0 % CRC теста D2C6A462 CRC копии D2C6A462 Копирование... OK
Трек 9 Имя файла C:\Documents and Settings\Andreas\Мои документы\Моя музыка\EACtemp\09 - Toscanian Sunset.wav Пиковый уровень 54.9 % CRC теста 098EA3E1 CRC копии 098EA3E1 Копирование... OK
Ошибок не произошло
Конец отчёта
Приватный:
Нет (DHT включён)
Размер:
321.03 Мб (336,624,092 байт) » файлов: 14
Участники:
0 раздают, 0 качают (0 участников всего)
Внешние участники:
2 раздают, 1 качают (3 участников всего) [ Обновить ]
20:55
105
RSS
Нет комментариев. Ваш будет первым!