Поиск

1961 (1992) Mal Waldron with Eric Dolphy and Booker Ervin - The Quest

1961 (1992) Mal Waldron with Eric Dolphy and Booker Ervin - The Quest
Страна-производитель диска (релиза):
USA
Дата записи диска:
27 июня 1961
Дата издания диска:
1961
Дата переиздания диска:
1992
Издатель (лейбл):
Номер по каталогу:
OJCCD-082-2
Носитель:
CD
Битрейт аудио:
lossless
Аудиокодек:
FLAC (*.flac)
Тип рипа:
tracks+.cue
Время звучания:
46:00
Наличие сканов:
  • да
Релизёр (источник):
Yowlz
Треклист:


1. Status Seeking Waldron 8:52
2. Duquility Waldron 4:09
3. Thirteen Waldron 4:42
4. We Diddit Waldron 4:23
5. Warm Canto Waldron 5:37
6. Warp and Woof Waldron 5:36
7. Fire Waltz Waldron 7:58

Состав:
  • Joe Benjamin Bass
  • Ron Carter Cello
  • Eric Dolphy Clarinet, Sax (Alto)
  • Booker Ervin Sax (Tenor)
  • Charlie Persip Drums
  • Rudy Van Gelder Engineer
  • Mal Waldron Composer, Piano
Альбом записан 27 июня 1961 года Rudi van Gelder, оцифрован на Fantasy Studios в 1992 году.
Лог создания рипа
<spoiler title="Лог создания рипа"><pre>
EAC extraction logfile from 1. April 2006, 0:18 for CD
Mal Waldron / The Quest
Used drive : PLEXTOR CD-R PX-W4824A Adapter: 1 ID: 0
Read mode : Secure with C2, accurate stream, disable cache
Read offset correction : 98
Overread into Lead-In and Lead-Out : Yes
Used output format : C:\Program Files\Exact Audio Copy\flac.exe (User Defined Encoder)
320 kBit/s
Additional command line options : -8 -V -T "artist=%a" -T "title=%t" -T "album=%g" -T "date=%y" -T "tracknumber=%n" -T "genre=%m" %s
Other options :
Fill up missing offset samples with silence : Yes
Delete leading and trailing silent blocks : No
Native Win32 interface for Win NT & 2000
Track 1
Filename E:\05_NEW RIPS\Mal Waldron - The Quest\01 - Status Seeking (Mal Waldron - The Quest).wav
Pre-gap length 0:00:02.00
Peak level 99.8 %
Track quality 100.0 %
Test CRC 39414921
Copy CRC 39414921
Copy OK
Track 2
Filename E:\05_NEW RIPS\Mal Waldron - The Quest\02 - Duquility (Mal Waldron - The Quest).wav
Pre-gap length 0:00:02.86
Peak level 54.4 %
Track quality 100.0 %
Test CRC 8814E323
Copy CRC 8814E323
Copy OK
Track 3
Filename E:\05_NEW RIPS\Mal Waldron - The Quest\03 - Thirteen (Mal Waldron - The Quest).wav
Pre-gap length 0:00:02.56
Peak level 96.3 %
Track quality 100.0 %
Test CRC 69100247
Copy CRC 69100247
Copy OK
Track 4
Filename E:\05_NEW RIPS\Mal Waldron - The Quest\04 - We Diddit (Mal Waldron - The Quest).wav
Pre-gap length 0:00:03.80
Peak level 100.0 %
Track quality 100.0 %
Test CRC AE9FA80F
Copy CRC AE9FA80F
Copy OK
Track 5
Filename E:\05_NEW RIPS\Mal Waldron - The Quest\05 - Warm Canto (Mal Waldron - The Quest).wav
Pre-gap length 0:00:02.69
Peak level 66.2 %
Track quality 100.0 %
Test CRC FE1F8146
Copy CRC FE1F8146
Copy OK
Track 6
Filename E:\05_NEW RIPS\Mal Waldron - The Quest\06 - Warp And Woof (Mal Waldron - The Quest).wav
Pre-gap length 0:00:02.90
Peak level 92.7 %
Track quality 100.0 %
Test CRC 6860BBAD
Copy CRC 6860BBAD
Copy OK
Track 7
Filename E:\05_NEW RIPS\Mal Waldron - The Quest\07 - Fire Waltz (Mal Waldron - The Quest).wav
Pre-gap length 0:00:04.00
Peak level 98.6 %
Track quality 100.0 %
Test CRC 062FA910
Copy CRC 062FA910
Copy OK
No errors occured
End of status report
</pre></spoiler>
Приватный:
Нет (DHT включён)
Размер:
250.27 Мб (262,424,102 байт) » файлов: 16
Участники:
0 раздают, 0 качают (0 участников всего)
Внешние участники:
3 раздают, 1 качают (4 участников всего) [ Обновить ]
Скорость:
Торрент не зарегистрирован на трекере
23:46
64
RSS
Нет комментариев. Ваш будет первым!