Поиск

(R&B, Americana, Soul, Roots) [CD] William Bell - This Is Where I Live - 2016, FLAC (tracks+.cue), lossless

(R&B, Americana, Soul, Roots) [CD] William Bell - This Is Where I Live - 2016, FLAC (tracks+.cue), lossless
Треклист:
William Bell / This Is Where I Live
Жанр: R&B, Americana, Soul, Roots
Носитель: CD
Страна-производитель диска (релиза): USA
Год издания: 2016
Издатель (лейбл): Stax
Номер по каталогу: STX-38939-02
Страна исполнителя (группы): USA
Аудиокодек: FLAC (*.flac)
Тип рипа: tracks+.cue
Битрейт аудио: lossless
Продолжительность: 00:38:55
Источник (релизер): свой рип
Наличие сканов в содержимом раздачи: нет
Треклист:
01. The Three of Me (3:24)
02. The House Always Wins (2:57)
03. Poison in the Well (3:16)
04. I Will Take Care of You (2:52)
05. Born Under a Bad Sign (3:17)
06. All Your Stories (2:57)
07. Walking On a Tightrope (2:52)
08. This Is Where I Live (3:14)
09. More Rooms (4:19)
10. All the Things You Can't Remember (3:01)
11. Mississippi-Arkansas Bridge (3:48)
12. People Want to Go Home (2:58)
 
Лог создания рипа
Exact Audio Copy V1.1 from 23. June 2015
EAC extraction logfile from 10. July 2016, 15:30
William Bell / This is where I Live
Used drive : TSSTcorpDVDWBD SH-B123L Adapter: 1 ID: 0
Read mode : Secure
Utilize accurate stream : Yes
Defeat audio cache : Yes
Make use of C2 pointers : No
Read offset correction : 6
Overread into Lead-In and Lead-Out : No
Fill up missing offset samples with silence : Yes
Delete leading and trailing silent blocks : No
Null samples used in CRC calculations : Yes
Used interface : Native Win32 interface for Win NT & 2000
Gap handling : Appended to previous track
Used output format : User Defined Encoder
Selected bitrate : 128 kBit/s
Quality : High
Add ID3 tag : No
Command line compressor : C:\Program Files\Exact Audio Copy\Flac\flac.exe
Additional command line options : -8 -e -V -T "ARTIST=%artist%" -T "TITLE=%title%" -T "ALBUM=%albumtitle%" -T "DATE=%year%" -T "TRACKNUMBER=%tracknr%" -T "GENRE=%genre%" -T "PERFORMER=%albuminterpret%" -T "COMPOSER=%composer%" %haslyrics%--tag-from-file=LYRICS="%lyricsfile%"%haslyrics% -T "ALBUMARTIST=%albumartist%" -T "DISCNUMBER=%cdnumber%" -T "TOTALDISCS=%totalcds%" -T "TOTALTRACKS=%numtracks%" -T "COMMENT=%comment%" %source% -o %dest%
TOC of the extracted CD
Track | Start | Length | Start sector | End sector
---------------------------------------------------------
1 | 0:00.00 | 3:24.26 | 0 | 15325
2 | 3:24.26 | 2:56.50 | 15326 | 28575
3 | 6:21.01 | 3:15.41 | 28576 | 43241
4 | 9:36.42 | 2:52.05 | 43242 | 56146
5 | 12:28.47 | 3:17.22 | 56147 | 70943
6 | 15:45.69 | 2:56.68 | 70944 | 84211
7 | 18:42.62 | 2:52.01 | 84212 | 97112
8 | 21:34.63 | 3:14.21 | 97113 | 111683
9 | 24:49.09 | 4:19.00 | 111684 | 131108
10 | 29:08.09 | 3:00.56 | 131109 | 144664
11 | 32:08.65 | 3:47.72 | 144665 | 161761
12 | 35:56.62 | 2:58.12 | 161762 | 175123
Track 1
Filename J:\plex\staging\01 - The Three of Me.wav
Pre-gap length 0:00:02.00
Peak level 98.8 %
Extraction speed 2.3 X
Track quality 100.0 %
Test CRC 70DCAAE6
Copy CRC 70DCAAE6
Track not present in AccurateRip database
Copy OK
Track 2
Filename J:\plex\staging\02 - The House always Wins.wav
Peak level 98.8 %
Extraction speed 2.3 X
Track quality 100.0 %
Test CRC 09D7F1D4
Copy CRC 09D7F1D4
Track not present in AccurateRip database
Copy OK
Track 3
Filename J:\plex\staging\03 - Poison in the Well.wav
Peak level 97.7 %
Extraction speed 2.1 X
Track quality 99.9 %
Test CRC A58817DE
Copy CRC A58817DE
Track not present in AccurateRip database
Copy OK
Track 4
Filename J:\plex\staging\04 - I will take care of you.wav
Peak level 97.7 %
Extraction speed 2.6 X
Track quality 100.0 %
Test CRC 61301FA7
Copy CRC 61301FA7
Track not present in AccurateRip database
Copy OK
Track 5
Filename J:\plex\staging\05 - born under a bad sign.wav
Peak level 97.7 %
Extraction speed 2.8 X
Track quality 100.0 %
Test CRC 897EBE91
Copy CRC 897EBE91
Track not present in AccurateRip database
Copy OK
Track 6
Filename J:\plex\staging\06 - all your stories.wav
Peak level 97.7 %
Extraction speed 2.8 X
Track quality 100.0 %
Test CRC 39EC764B
Copy CRC 39EC764B
Track not present in AccurateRip database
Copy OK
Track 7
Filename J:\plex\staging\07 - walking on a tightrope.wav
Peak level 97.7 %
Extraction speed 2.9 X
Track quality 100.0 %
Test CRC B8247A0E
Copy CRC B8247A0E
Track not present in AccurateRip database
Copy OK
Track 8
Filename J:\plex\staging\08 - this is where I live.wav
Peak level 97.7 %
Extraction speed 3.1 X
Track quality 100.0 %
Test CRC BC2ED48E
Copy CRC BC2ED48E
Track not present in AccurateRip database
Copy OK
Track 9
Filename J:\plex\staging\09 - more rooms.wav
Peak level 97.7 %
Extraction speed 3.4 X
Track quality 100.0 %
Test CRC BBAA0A20
Copy CRC BBAA0A20
Track not present in AccurateRip database
Copy OK
Track 10
Filename J:\plex\staging\10 - all the things you can't remember.wav
Peak level 97.7 %
Extraction speed 3.3 X
Track quality 100.0 %
Test CRC 42A6D47F
Copy CRC 42A6D47F
Track not present in AccurateRip database
Copy OK
Track 11
Filename J:\plex\staging\11 - mississippi-arkansas bridge.wav
Peak level 98.8 %
Extraction speed 3.6 X
Track quality 100.0 %
Test CRC B5440366
Copy CRC B5440366
Track not present in AccurateRip database
Copy OK
Track 12
Filename J:\plex\staging\12 - people want to go home.wav
Peak level 97.7 %
Extraction speed 3.5 X
Track quality 100.0 %
Test CRC E0FEFC13
Copy CRC E0FEFC13
Track not present in AccurateRip database
Copy OK
None of the tracks are present in the AccurateRip database
No errors occurred
End of status report
==== Log checksum B34A3F6E0C202AB8FDA78CA0B445D56AB81257ECB50D52C4357BCDE7C934B7FE ====
 
Содержание индексной карты (.CUE)
REM GENRE "Rhythmic Soul"
REM DATE 2016
REM DISCID 9F091E0C
REM COMMENT "ExactAudioCopy v1.1"
CATALOG 0888072389397
PERFORMER "William Bell"
TITLE "This is where I Live"
FILE "01 - The Three of Me.wav" WAVE
TRACK 01 AUDIO
TITLE "The Three of Me"
PERFORMER "William Bell"
ISRC USC4R1504362
INDEX 01 00:00:00
FILE "02 - The House always Wins.wav" WAVE
TRACK 02 AUDIO
TITLE "The House always Wins"
PERFORMER "William Bell"
ISRC USC4R1504363
INDEX 01 00:00:00
FILE "03 - Poison in the Well.wav" WAVE
TRACK 03 AUDIO
TITLE "Poison in the Well"
PERFORMER "William Bell"
ISRC USC4R1504364
INDEX 01 00:00:00
FILE "04 - I will take care of you.wav" WAVE
TRACK 04 AUDIO
TITLE "I will take care of you"
PERFORMER "William Bell"
ISRC USC4R1504365
INDEX 01 00:00:00
FILE "05 - born under a bad sign.wav" WAVE
TRACK 05 AUDIO
TITLE "born under a bad sign"
PERFORMER "William Bell"
ISRC USC4R1504366
INDEX 01 00:00:00
FILE "06 - all your stories.wav" WAVE
TRACK 06 AUDIO
TITLE "all your stories"
PERFORMER "William Bell"
ISRC USC4R1504367
INDEX 01 00:00:00
FILE "07 - walking on a tightrope.wav" WAVE
TRACK 07 AUDIO
TITLE "walking on a tightrope"
PERFORMER "William Bell"
ISRC USC4R1504368
INDEX 01 00:00:00
FILE "08 - this is where I live.wav" WAVE
TRACK 08 AUDIO
TITLE "this is where I live"
PERFORMER "William Bell"
ISRC USC4R1504369
INDEX 01 00:00:00
FILE "09 - more rooms.wav" WAVE
TRACK 09 AUDIO
TITLE "more rooms"
PERFORMER "William Bell"
ISRC USC4R1504371
INDEX 01 00:00:00
FILE "10 - all the things you can't remember.wav" WAVE
TRACK 10 AUDIO
TITLE "all the things you can't remember"
PERFORMER "William Bell"
ISRC USC4R1504372
INDEX 01 00:00:00
FILE "11 - mississippi-arkansas bridge.wav" WAVE
TRACK 11 AUDIO
TITLE "mississippi-arkansas bridge"
PERFORMER "William Bell"
ISRC USC4R1504372
INDEX 01 00:00:00
FILE "12 - people want to go home.wav" WAVE
TRACK 12 AUDIO
TITLE "people want to go home"
PERFORMER "William Bell"
ISRC USC4R1504374
INDEX 01 00:00:00
 
Лог проверки качества
-----------------------
DON'T MODIFY THIS FILE
-----------------------
PERFORMER: auCDtect Task Manager, ver. 1.6.0 RC1 build 1.6.0.1
Copyright (c) 2008-2010 y-soft. All rights reserved
http://y-soft.org
ANALYZER: auCDtect: CD records authenticity detector, version 0.8.2
Copyright (c) 2004 Oleg Berngardt. All rights reserved.
Copyright (c) 2004 Alexander Djourik. All rights reserved.
FILE: 12 - people want to go home.flac
Size: 17935888 Hash: 6946D671493E9E7351F6FE9ABE8832D2 Accuracy: -m0
Conclusion: CDDA 100%
Signature: AF1138B007C9669A047BB843323CEC036E63E451
FILE: 11 - mississippi-arkansas bridge.flac
Size: 23827041 Hash: C14BADC653F94CC77CBD9E06575D46C9 Accuracy: -m0
Conclusion: CDDA 100%
Signature: 38BBE2559BDC2C06A27E0E71E0DC4F4676926990
FILE: 10 - all the things you can't remember.flac
Size: 17064649 Hash: 0E316870DC4F8E34316E2EA5834148BA Accuracy: -m0
Conclusion: CDDA 100%
Signature: 1F98992D89017CDE42E4309F296E8181BFB939A0
FILE: 09 - more rooms.flac
Size: 25530938 Hash: F00E0D68E653ABCADBC87E63D24F45C5 Accuracy: -m0
Conclusion: CDDA 99%
Signature: F9FFA0A862E17B3840065006EA7BEC2D627760D1
FILE: 08 - this is where I live.flac
Size: 20285652 Hash: A4F88C7F3915635F7762C9B9E9CBFEF3 Accuracy: -m0
Conclusion: CDDA 100%
Signature: FBC83E77EF38C13BC5E51A14FFB44DA8D6CB5B88
FILE: 07 - walking on a tightrope.flac
Size: 17555643 Hash: B0786599C03EEB9EAFEAB56A3D28829C Accuracy: -m0
Conclusion: CDDA 100%
Signature: 5B1E54AF9328C704EA3BCDB3FC888553BFEC186F
FILE: 06 - all your stories.flac
Size: 14081959 Hash: B8D7F4EA6B3C63ACC3B9C6F267A1F306 Accuracy: -m0
Conclusion: CDDA 100%
Signature: 24A30F90E3B3597F78AAB9E04DF7031789F87DE7
FILE: 05 - born under a bad sign.flac
Size: 18930898 Hash: 2EC04C0BEB2B12E70D98E49F99CA9C38 Accuracy: -m0
Conclusion: CDDA 100%
Signature: F051B34C06D9F95F7F7AE06C625A71A454571C54
FILE: 04 - I will take care of you.flac
Size: 17295025 Hash: D78B161FEEC76DB830F1EBC21B691420 Accuracy: -m0
Conclusion: CDDA 100%
Signature: CB1805A5C737107A8194566B8054CED87A7327F8
FILE: 03 - Poison in the Well.flac
Size: 21519543 Hash: 5060F60AF4B3598A321A2F4D7C94C3DD Accuracy: -m0
Conclusion: CDDA 100%
Signature: C8B366A57F574541FBF1772CD024E1D79EDAC980
FILE: 02 - The House always Wins.flac
Size: 17116843 Hash: 104F15DBC7E9418908B60218867A75F2 Accuracy: -m0
Conclusion: CDDA 100%
Signature: CC3636AEA95168EFFAC2ADC0B06A7A4998A79CDC
FILE: 01 - The Three of Me.flac
Size: 20832285 Hash: CDF890042FD2DB3DF08070A094DD9B22 Accuracy: -m0
Conclusion: CDDA 100%
Signature: B1BE7CB3AB6C35EB436454229378F02C44397163
Приватный:
Нет (DHT включён)
Размер:
221.25 Мб (231,996,616 байт) » файлов: 16
Участники:
0 раздают, 0 качают (0 участников всего)
Внешние участники:
1 раздают, 0 качают (1 участников всего) [ Обновить ]
No seeders - write personal message to user M0p94ok. Нет сидеров - пишите личное сообщение пользователю M0p94ok.
14:31
138
Нет комментариев. Ваш будет первым!