Поиск

(Post-Bop, Fusion) [CD] Kenny Garrett - Sketches Of MD: Live At The Iridium - 2008, FLAC (tracks+.cue), lossless

(Post-Bop, Fusion) [CD] Kenny Garrett - Sketches Of MD: Live At The Iridium - 2008, FLAC (tracks+.cue), lossless
Треклист:
Kenny Garrett - Sketches Of MD: Live At The Iridium Жанр: Post-Bop, Fusion
Носитель: CD
Год издания: 2008
Издатель (лейбл): Mack Avenue Records
Номер по каталогу: MAC 1042
Аудиокодек: FLAC (*.flac)
Тип рипа: tracks+.cue
Битрейт аудио: lossless
Продолжительность: 56:41
Источник (релизер): ruskaval
Наличие сканов в содержимом раздачи: да
Треклист:
01. The Ring (14:35)
02. Intro To Africa (9:21)
03. Sketches Of MD (10:03)
04. Wayne's Thang (10:58)
05. Happy People (11:44)
Personnel:
Kenny Garrett - alto saxophone, bass clarinet, organ, synthesizer
Benito Gonzales - piano, Fender Rhodes, synthesizer
Nat Reeves - bass
Jamire Williams - drums
Pharaoh Sanders - tenor saxophone, vocals
 
Об альбоме (сборнике)
Though it was recorded live at New York's jazz emporium, Iridium, Detroit born saxophonist Kenny Garrett makes a return home of sorts with Sketches of MD, his debut on the Motor City's own Mack Avenue Records. His quartet here, with bassist Nat Reeves, pianist/organist Benito Gonzalez, and drummer Jamire Williams, may not possess the star power of some of his studio albums, but this band is more than up for the gig. In addition, saxophonist Pharoah Sanders reprises his role from Beyond the Wall from 2006 as Garrett's foil, creating sparks aplenty.
Garrett's been a lot of places since he left Detroit: he was a member of one of Miles Davis' later electric groups, and in his own generous collection of albums his explorations have run the gamut, from hard-driving post-bop explorations in African Exchange Student to the post-Coltrane modalism and Eastern overtones on Beyond the Wall to the varied jazz-funk workout on Happy People. Here, Garrett offers a sincere crowd-pleasing set of his own tunes that covers all of these terrains. All five of these pieces are long. The set commences with "The Ring," an extended, hypnotic modal workout with Gonzalez playing his best McCoy Tyner, and Garrett's alto and Sanders' tenor beautifully articulated. On "Intro to Africa," Gene Ammons' soul meets Duke Ellington's blues in a sultry mix of honking and blowing. The vamp is repetitive as in a repeated coda, but serves to build the tune up into something both folksy and profound – especially as Sanders and Garrett begin to chant along with the piano. The title track begins as a skeletal sketch played out in rhythmic quotes from Reeves and in breaks by Williams; Garrett's and Sanders' exchanges are minimal, ratcheting up the tension in the groove where the pulse feels more pronounced as Gonzalez colors in the frame with painterly synth washes. This is among the most beautiful and quietly rousing things here. There is an excellent version of Garrett's now trademark "Wayne's Thang" with grooved-out funk led initially by a bass drum and a hi-hat vamp by Williams and Gonzalez's Rhodes. Garrett's alto comes strutting in the door with a spare but killer strut in call and response with Williams until the keyboardist begins to solo and Sanders enters. The set closes with "Happy People," where Williams' kit shuffles and shifts from tom-toms and cymbal bells to hi-hat and snares as Garrett and Sanders dig into everything from tough and contemporary jazz to R&B to quoting Weather Report and the electric groove of mid-'70s Herbie Hancock.Gonzalez is a big player here, not so much as a soloist – though he is that – but more the cornerstone of the evolving sounds and textures this group is putting forth. What is most pleasing about Sketches of MD is that Garrett is as concerned with offering his audience a solid and utterly engaging show as he is with having himself thought of as a banner-carrying sophisticated jazzman. And that's where he stands above so many of his contemporaries: Garrett finds beauty and worth in a rainbow of jazz's expressions in the 21st century. This set is an excellent debut showcase for Garrett on Mack Avenue.

 
Лог создания рипа
Exact Audio Copy V1.0 beta 3 from 29. August 2011
EAC extraction logfile from 19. January 2014, 14:30
Kenny Garrett / Sketches of MD Live at the Iridium
Used drive : TEAC DV-28E-N Adapter: 2 ID: 0
Read mode : Secure
Utilize accurate stream : Yes
Defeat audio cache : Yes
Make use of C2 pointers : No
Read offset correction : 102
Overread into Lead-In and Lead-Out : No
Fill up missing offset samples with silence : Yes
Delete leading and trailing silent blocks : No
Null samples used in CRC calculations : Yes
Used interface : Native Win32 interface for Win NT & 2000
Gap handling : Appended to previous track
Used output format : User Defined Encoder
Selected bitrate : 768 kBit/s
Quality : High
Add ID3 tag : No
Command line compressor : D:\Program Files (x86)\Exact Audio Copy\Flac\flac.exe
Additional command line options : -8 -V -T "ARTIST=%artist%" -T "TITLE=%title%" -T "ALBUM=%albumtitle%" -T "DATE=%year%" -T "TRACKNUMBER=%tracknr%" -T "TOTALTRACKS=%numtracks%" -T "GENRE=%genre%" -T "ALBUMARTIST=%albumartist%" -T "ALBUM ARTIST=%albumartist%" -T "COMMENT=EAC Secure Mode, Test & Copy, AccurateRip, FLAC -8" %source%
TOC of the extracted CD
Track | Start | Length | Start sector | End sector
---------------------------------------------------------
1 | 0:00.00 | 14:35.25 | 0 | 65649
2 | 14:35.25 | 9:21.29 | 65650 | 107753
3 | 23:56.54 | 10:02.46 | 107754 | 152949
4 | 33:59.25 | 10:57.58 | 152950 | 202282
5 | 44:57.08 | 11:44.16 | 202283 | 255098
Track 1
Filename F:\EAC\01 - The Ring.wav
Pre-gap length 0:00:02.00
Peak level 99.6 %
Extraction speed 2.5 X
Track quality 100.0 %
Test CRC 4EEE75E3
Copy CRC 4EEE75E3
Cannot be verified as accurate (confidence 20) [D027B7AA], AccurateRip returned [2E4D5B57] (AR v2)
Copy OK
Track 2
Filename F:\EAC\02 - Intro to Africa.wav
Peak level 97.7 %
Extraction speed 2.6 X
Track quality 99.9 %
Test CRC D2A829F5
Copy CRC D2A829F5
Cannot be verified as accurate (confidence 20) [D033498D], AccurateRip returned [8F607841] (AR v2)
Copy OK
Track 3
Filename F:\EAC\03 - Sketches of MD.wav
Peak level 97.2 %
Extraction speed 3.3 X
Track quality 100.0 %
Test CRC C97FEB5F
Copy CRC C97FEB5F
Cannot be verified as accurate (confidence 20) [D48B72BC], AccurateRip returned [510824B6] (AR v2)
Copy OK
Track 4
Filename F:\EAC\04 - Wayne's Thang.wav
Peak level 98.2 %
Extraction speed 3.7 X
Track quality 100.0 %
Test CRC 497860BD
Copy CRC 497860BD
Cannot be verified as accurate (confidence 20) [7263D7FA], AccurateRip returned [B7DACFC9] (AR v2)
Copy OK
Track 5
Filename F:\EAC\05 - Happy People.wav
Peak level 97.4 %
Extraction speed 3.7 X
Track quality 99.9 %
Test CRC 73BA696B
Copy CRC 73BA696B
Cannot be verified as accurate (confidence 20) [96436A5A], AccurateRip returned [95BDED8B] (AR v2)
Copy OK
No tracks could be verified as accurate
You may have a different pressing from the one(s) in the database
No errors occurred
End of status report
==== Log checksum 9D748FBC9A46B5CEE54F2720938A2DE40F67CB6F85CB2580B9D9A192A8C72333 ====
 
Содержание индексной карты (.CUE)
REM GENRE Jazz
REM DATE 2008
REM DISCID 490D4905
REM COMMENT "ExactAudioCopy v1.0b3"
PERFORMER "Kenny Garrett"
TITLE "Sketches Of MD: Live At The Iridium"
FILE "01 - The Ring.wav" WAVE
TRACK 01 AUDIO
TITLE "The Ring"
PERFORMER "Kenny Garrett"
INDEX 01 00:00:00
FILE "02 - Intro To Africa.wav" WAVE
TRACK 02 AUDIO
TITLE "Intro To Africa"
PERFORMER "Kenny Garrett"
INDEX 01 00:00:00
FILE "03 - Sketches Of MD.wav" WAVE
TRACK 03 AUDIO
TITLE "Sketches Of MD"
PERFORMER "Kenny Garrett"
INDEX 01 00:00:00
FILE "04 - Wayne's Thang.wav" WAVE
TRACK 04 AUDIO
TITLE "Wayne's Thang"
PERFORMER "Kenny Garrett"
INDEX 01 00:00:00
FILE "05 - Happy People.wav" WAVE
TRACK 05 AUDIO
TITLE "Happy People"
PERFORMER "Kenny Garrett"
INDEX 01 00:00:00
Приватный:
Нет (DHT включён)
Размер:
412.14 Мб (432,162,670 байт) » файлов: 17
Участники:
0 раздают, 0 качают (0 участников всего)
Внешние участники:
2 раздают, 1 качают (3 участников всего) [ Обновить ]
For power users only: no seeders - write to support@pro-jazz.com. Для power user: нет сидеров - пишите на support@pro-jazz.com.
03:26
128
Нет комментариев. Ваш будет первым!