Вы используете незарегистрированную версию компонента "Вкладки"!

Поиск

(Modern Creative) [CD] Jason Adasiewicz's Sun Rooms (Nate McBride, Mike Reed) - Spacer - 2011, FLAC (tracks+.cue), lossless

(Modern Creative) [CD] Jason Adasiewicz's Sun Rooms (Nate McBride, Mike Reed) - Spacer - 2011, FLAC (tracks+.cue), lossless
Треклист:
Jason Adasiewicz's Sun Rooms / Spacer
Жанр: Modern Creative
Носитель: CD
Страна-производитель диска: USA
Год издания: 2011
Издатель (лейбл): Delmark
Номер по каталогу: DE 2012
Страна: USA
Аудиокодек: FLAC (*.flac)
Тип рипа: tracks+.cue
Битрейт аудио: lossless
Продолжительность: 42:42
Источник (релизер): anch
Наличие сканов в содержимом раздачи: нет
Треклист:
01 Solo One {Jason Adasiewicz} 1:42
02 Hi Touch {Jason Adasiewicz} 6:02
03 Run Fly {Jason Adasiewicz} 4:55
04 Pillow {Jason Adasiewicz} 3:51
05 The Volunteer {Nate McBride} 4:49
06 Bees {Jason Adasiewicz} 5:34
07 Bobbie {Eric Boeren} 4:24
08 Diesel {Jason Adasiewicz} 4:53
09 Waiting in the Attic {Jason Adasiewicz} 3:56
10 Solo Two {Jason Adasiewicz} 2:37
 
Лог создания рипа
X Lossless Decoder version 20130602 (143.2)
XLD extraction logfile from 2013-07-12 00:12:19 +0400
Jason Adasiewicz's Sun Rooms / Spacer
Used drive : HL-DT-ST DVDRW GX30N (revision RP09)
Media type : Pressed CD
Ripper mode : XLD Secure Ripper
Disable audio cache : OK for the drive with a cache less than 1375KiB
Make use of C2 pointers : NO
Read offset correction : 6
Max retry count : 100
Gap status : Analyzed, Appended (except HTOA)
TOC of the extracted CD
Track | Start | Length | Start sector | End sector
---------------------------------------------------------
1 | 00:00:00 | 01:41:40 | 0 | 7614
2 | 01:41:40 | 06:02:22 | 7615 | 34786
3 | 07:43:62 | 04:55:02 | 34787 | 56913
4 | 12:38:64 | 03:50:74 | 56914 | 74237
5 | 16:29:63 | 04:48:73 | 74238 | 95910
6 | 21:18:61 | 05:34:16 | 95911 | 120976
7 | 26:53:02 | 04:24:20 | 120977 | 140796
8 | 31:17:22 | 04:52:47 | 140797 | 162743
9 | 36:09:69 | 03:55:51 | 162744 | 180419
10 | 40:05:45 | 02:36:42 | 180420 | 192161
AccurateRip Summary
Disc not found in AccurateRip DB.
All Tracks
Album gain : -3.49 dB
Peak : 0.947052
Statistics
Read error : 0
Jitter error (maybe fixed) : 0
Retry sector count : 0
Damaged sector count : 0
Track 01
Filename : /Users/anch/Music/FLAC/Jason Adasiewicz's Sun Rooms - 2011 - Spacer [MP3 320]/01 - Solo One.mp3
/Users/anch/Music/FLAC/Jason Adasiewicz's Sun Rooms - 2011 - Spacer [MP3 V0]/01 - Solo One.mp3
/Users/anch/Music/FLAC/Jason Adasiewicz's Sun Rooms - 2011 - Spacer [FLAC]/01 - Solo One.flac
Pre-gap length : 00:02:00
Track gain : -1.83 dB
Peak : 0.795197
CRC32 hash (test run) : 03EDC9F8
CRC32 hash : 03EDC9F8
CRC32 hash (skip zero) : 56B34E9E
AccurateRip v1 signature : 86F91253
AccurateRip v2 signature : AE6A8AE4
->Track not present in AccurateRip database.
Statistics
Read error : 0
Jitter error (maybe fixed) : 0
Retry sector count : 0
Damaged sector count : 0
Track 02
Filename : /Users/anch/Music/FLAC/Jason Adasiewicz's Sun Rooms - 2011 - Spacer [MP3 320]/02 - Hi Touch.mp3
/Users/anch/Music/FLAC/Jason Adasiewicz's Sun Rooms - 2011 - Spacer [MP3 V0]/02 - Hi Touch.mp3
/Users/anch/Music/FLAC/Jason Adasiewicz's Sun Rooms - 2011 - Spacer [FLAC]/02 - Hi Touch.flac
Pre-gap length : 00:04:69
Track gain : -4.69 dB
Peak : 0.946289
CRC32 hash (test run) : DD075FF7
CRC32 hash : DD075FF7
CRC32 hash (skip zero) : 8BBA4CED
AccurateRip v1 signature : A9D6ED09
AccurateRip v2 signature : 26C76AB7
->Track not present in AccurateRip database.
Statistics
Read error : 0
Jitter error (maybe fixed) : 0
Retry sector count : 0
Damaged sector count : 0
Track 03
Filename : /Users/anch/Music/FLAC/Jason Adasiewicz's Sun Rooms - 2011 - Spacer [MP3 320]/03 - Run Fly.mp3
/Users/anch/Music/FLAC/Jason Adasiewicz's Sun Rooms - 2011 - Spacer [MP3 V0]/03 - Run Fly.mp3
/Users/anch/Music/FLAC/Jason Adasiewicz's Sun Rooms - 2011 - Spacer [FLAC]/03 - Run Fly.flac
Pre-gap length : 00:02:44
Track gain : -4.54 dB
Peak : 0.947052
CRC32 hash (test run) : 7E3924AA
CRC32 hash : 7E3924AA
CRC32 hash (skip zero) : 70AE87B5
AccurateRip v1 signature : A2D812AF
AccurateRip v2 signature : C3B986E7
->Track not present in AccurateRip database.
Statistics
Read error : 0
Jitter error (maybe fixed) : 0
Retry sector count : 0
Damaged sector count : 0
Track 04
Filename : /Users/anch/Music/FLAC/Jason Adasiewicz's Sun Rooms - 2011 - Spacer [MP3 320]/04 - Pillow.mp3
/Users/anch/Music/FLAC/Jason Adasiewicz's Sun Rooms - 2011 - Spacer [MP3 V0]/04 - Pillow.mp3
/Users/anch/Music/FLAC/Jason Adasiewicz's Sun Rooms - 2011 - Spacer [FLAC]/04 - Pillow.flac
Pre-gap length : 00:03:64
Track gain : -2.05 dB
Peak : 0.797028
CRC32 hash (test run) : 5164233B
CRC32 hash : 5164233B
CRC32 hash (skip zero) : 73DBBBEC
AccurateRip v1 signature : 2A48FF09
AccurateRip v2 signature : CE667F0A
->Track not present in AccurateRip database.
Statistics
Read error : 0
Jitter error (maybe fixed) : 0
Retry sector count : 0
Damaged sector count : 0
Track 05
Filename : /Users/anch/Music/FLAC/Jason Adasiewicz's Sun Rooms - 2011 - Spacer [MP3 320]/05 - The Volunteer.mp3
/Users/anch/Music/FLAC/Jason Adasiewicz's Sun Rooms - 2011 - Spacer [MP3 V0]/05 - The Volunteer.mp3
/Users/anch/Music/FLAC/Jason Adasiewicz's Sun Rooms - 2011 - Spacer [FLAC]/05 - The Volunteer.flac
Pre-gap length : 00:02:12
Track gain : -2.55 dB
Peak : 0.940033
CRC32 hash (test run) : 4374DF73
CRC32 hash : 4374DF73
CRC32 hash (skip zero) : B3056045
AccurateRip v1 signature : 1160B461
AccurateRip v2 signature : E3C45FCC
->Track not present in AccurateRip database.
Statistics
Read error : 0
Jitter error (maybe fixed) : 0
Retry sector count : 0
Damaged sector count : 0
Track 06
Filename : /Users/anch/Music/FLAC/Jason Adasiewicz's Sun Rooms - 2011 - Spacer [MP3 320]/06 - Bees.mp3
/Users/anch/Music/FLAC/Jason Adasiewicz's Sun Rooms - 2011 - Spacer [MP3 V0]/06 - Bees.mp3
/Users/anch/Music/FLAC/Jason Adasiewicz's Sun Rooms - 2011 - Spacer [FLAC]/06 - Bees.flac
Pre-gap length : 00:04:50
Track gain : -4.33 dB
Peak : 0.940125
CRC32 hash (test run) : F0FF75ED
CRC32 hash : F0FF75ED
CRC32 hash (skip zero) : 17BF268F
AccurateRip v1 signature : 5D21DB3C
AccurateRip v2 signature : FF449B53
->Track not present in AccurateRip database.
Statistics
Read error : 0
Jitter error (maybe fixed) : 0
Retry sector count : 0
Damaged sector count : 0
Track 07
Filename : /Users/anch/Music/FLAC/Jason Adasiewicz's Sun Rooms - 2011 - Spacer [MP3 320]/07 - Bobbie.mp3
/Users/anch/Music/FLAC/Jason Adasiewicz's Sun Rooms - 2011 - Spacer [MP3 V0]/07 - Bobbie.mp3
/Users/anch/Music/FLAC/Jason Adasiewicz's Sun Rooms - 2011 - Spacer [FLAC]/07 - Bobbie.flac
Pre-gap length : 00:03:39
Track gain : 3.25 dB
Peak : 0.600250
CRC32 hash (test run) : E47A5D54
CRC32 hash : E47A5D54
CRC32 hash (skip zero) : D9E771EB
AccurateRip v1 signature : 50D73739
AccurateRip v2 signature : 997C06B9
->Track not present in AccurateRip database.
Statistics
Read error : 0
Jitter error (maybe fixed) : 0
Retry sector count : 0
Damaged sector count : 0
Track 08
Filename : /Users/anch/Music/FLAC/Jason Adasiewicz's Sun Rooms - 2011 - Spacer [MP3 320]/08 - Diesel.mp3
/Users/anch/Music/FLAC/Jason Adasiewicz's Sun Rooms - 2011 - Spacer [MP3 V0]/08 - Diesel.mp3
/Users/anch/Music/FLAC/Jason Adasiewicz's Sun Rooms - 2011 - Spacer [FLAC]/08 - Diesel.flac
Pre-gap length : 00:02:69
Track gain : -4.24 dB
Peak : 0.945923
CRC32 hash (test run) : D930B6C7
CRC32 hash : D930B6C7
CRC32 hash (skip zero) : C380E700
AccurateRip v1 signature : 08946E5F
AccurateRip v2 signature : 0BC57A81
->Track not present in AccurateRip database.
Statistics
Read error : 0
Jitter error (maybe fixed) : 0
Retry sector count : 0
Damaged sector count : 0
Track 09
Filename : /Users/anch/Music/FLAC/Jason Adasiewicz's Sun Rooms - 2011 - Spacer [MP3 320]/09 - Waiting in the Attic.mp3
/Users/anch/Music/FLAC/Jason Adasiewicz's Sun Rooms - 2011 - Spacer [MP3 V0]/09 - Waiting in the Attic.mp3
/Users/anch/Music/FLAC/Jason Adasiewicz's Sun Rooms - 2011 - Spacer [FLAC]/09 - Waiting in the Attic.flac
Pre-gap length : 00:03:12
Track gain : -2.04 dB
Peak : 0.937622
CRC32 hash (test run) : 79FB7900
CRC32 hash : 79FB7900
CRC32 hash (skip zero) : 8FEFE235
AccurateRip v1 signature : 87FC9F2A
AccurateRip v2 signature : 4933963F
->Track not present in AccurateRip database.
Statistics
Read error : 0
Jitter error (maybe fixed) : 0
Retry sector count : 0
Damaged sector count : 0
Track 10
Filename : /Users/anch/Music/FLAC/Jason Adasiewicz's Sun Rooms - 2011 - Spacer [MP3 320]/10 - Solo Two.mp3
/Users/anch/Music/FLAC/Jason Adasiewicz's Sun Rooms - 2011 - Spacer [MP3 V0]/10 - Solo Two.mp3
/Users/anch/Music/FLAC/Jason Adasiewicz's Sun Rooms - 2011 - Spacer [FLAC]/10 - Solo Two.flac
Pre-gap length : 00:02:63
Track gain : 0.22 dB
Peak : 0.776428
CRC32 hash (test run) : 88B534F4
CRC32 hash : 88B534F4
CRC32 hash (skip zero) : DF90B972
AccurateRip v1 signature : 7F4C4B44
AccurateRip v2 signature : 4DA4F3DC
->Track not present in AccurateRip database.
Statistics
Read error : 0
Jitter error (maybe fixed) : 0
Retry sector count : 0
Damaged sector count : 0
No errors occurred
End of status report
 
Содержание индексной карты (.CUE)
TITLE "Spacer"
PERFORMER "Jason Adasiewicz's Sun Rooms"
REM GENRE "Free Jazz"
REM DATE "2011"
REM DISCNUMBER 1
REM TOTALDISCS 1
REM DISCID 7E0A020A
REM REPLAYGAIN_ALBUM_GAIN -3.49 dB
REM REPLAYGAIN_ALBUM_PEAK 0.947052
FILE "01 - Solo One.flac" WAVE
TRACK 01 AUDIO
TITLE "Solo One"
PERFORMER "Jason Adasiewicz's Sun Rooms"
ISRC US4B91101201
REM REPLAYGAIN_TRACK_GAIN -1.83 dB
REM REPLAYGAIN_TRACK_PEAK 0.795197
INDEX 01 00:00:00
TRACK 02 AUDIO
TITLE "Hi Touch"
PERFORMER "Jason Adasiewicz's Sun Rooms"
ISRC US4B91101202
REM REPLAYGAIN_TRACK_GAIN -4.69 dB
REM REPLAYGAIN_TRACK_PEAK 0.946289
INDEX 00 01:36:46
FILE "02 - Hi Touch.flac" WAVE
INDEX 01 00:00:00
TRACK 03 AUDIO
TITLE "Run Fly"
PERFORMER "Jason Adasiewicz's Sun Rooms"
ISRC US4B91101203
REM REPLAYGAIN_TRACK_GAIN -4.54 dB
REM REPLAYGAIN_TRACK_PEAK 0.947052
INDEX 00 05:59:53
FILE "03 - Run Fly.flac" WAVE
INDEX 01 00:00:00
TRACK 04 AUDIO
TITLE "Pillow"
PERFORMER "Jason Adasiewicz's Sun Rooms"
ISRC US4B91101204
REM REPLAYGAIN_TRACK_GAIN -2.05 dB
REM REPLAYGAIN_TRACK_PEAK 0.797028
INDEX 00 04:51:13
FILE "04 - Pillow.flac" WAVE
INDEX 01 00:00:00
TRACK 05 AUDIO
TITLE "The Volunteer"
PERFORMER "Jason Adasiewicz's Sun Rooms"
ISRC US4B91101205
REM REPLAYGAIN_TRACK_GAIN -2.55 dB
REM REPLAYGAIN_TRACK_PEAK 0.940033
INDEX 00 03:48:62
FILE "05 - The Volunteer.flac" WAVE
INDEX 01 00:00:00
TRACK 06 AUDIO
TITLE "Bees"
PERFORMER "Jason Adasiewicz's Sun Rooms"
ISRC US4B91101206
REM REPLAYGAIN_TRACK_GAIN -4.33 dB
REM REPLAYGAIN_TRACK_PEAK 0.940125
INDEX 00 04:44:23
FILE "06 - Bees.flac" WAVE
INDEX 01 00:00:00
TRACK 07 AUDIO
TITLE "Bobbie"
PERFORMER "Jason Adasiewicz's Sun Rooms"
ISRC US4B91101207
REM REPLAYGAIN_TRACK_GAIN 3.25 dB
REM REPLAYGAIN_TRACK_PEAK 0.600250
INDEX 00 05:30:52
FILE "07 - Bobbie.flac" WAVE
INDEX 01 00:00:00
TRACK 08 AUDIO
TITLE "Diesel"
PERFORMER "Jason Adasiewicz's Sun Rooms"
ISRC US4B91101208
REM REPLAYGAIN_TRACK_GAIN -4.24 dB
REM REPLAYGAIN_TRACK_PEAK 0.945923
INDEX 00 04:21:26
FILE "08 - Diesel.flac" WAVE
INDEX 01 00:00:00
TRACK 09 AUDIO
TITLE "Waiting in the Attic"
PERFORMER "Jason Adasiewicz's Sun Rooms"
ISRC US4B91101209
REM REPLAYGAIN_TRACK_GAIN -2.04 dB
REM REPLAYGAIN_TRACK_PEAK 0.937622
INDEX 00 04:49:35
FILE "09 - Waiting in the Attic.flac" WAVE
INDEX 01 00:00:00
TRACK 10 AUDIO
TITLE "Solo Two"
PERFORMER "Jason Adasiewicz's Sun Rooms"
ISRC US4B91101210
REM REPLAYGAIN_TRACK_GAIN 0.22 dB
REM REPLAYGAIN_TRACK_PEAK 0.776428
INDEX 00 03:52:63
FILE "10 - Solo Two.flac" WAVE
INDEX 01 00:00:00
Доп. информация:
 
скрытый текст
Sun Rooms is Jason Adasiewicz's three year old trio featuring Jason (vibraphone), Mike Reed (drums) and Nate McBride (bass). Their debut record Sun Rooms was named by the New York Times (Ben Ratliff) as one of the Top 10 Pop and Jazz Records of 2010. Spacer was written in the winter of 2011 and slowly shaped through a month long residency at a north side Chicago bar, The Whistler. Engineered by Griffin Rodriguez, Spacer documents 8 new tunes by Adasiewicz, one from McBride, and one from Dutch cornetist Eric Boeren.
 
Об альбоме (сборнике)
The vibraphone has been an integral part of jazz history at least since Lionel Hampton’s bands of the 1940s, really coming to fruition with the work of bop and chamber-jazz vibist Milt Jackson over the subsequent decade. The wide range of tonal possibilities on the instrument, as well as its percussive versatility, made it a natural fit for the jazz vanguard with musicians like Bobby Hutcherson, Walt Dickerson, Karl Berger, Khan Jamal, and Gunter Hampel among the instrument’s most important practitioners. Players like Hutcherson and Jackson often used the vibes along with piano accompaniment and were rarely the sole chordal accent in an ensemble. That allowed the vibes to prove their capabilities as a front-line percussion instrument, but tended to eclipse adaptability, which is ostensibly why the instrument has a special place in improvised music.
Chicago-based vibraphonist and composer Jason Adasiewicz is one of the busiest young players on the Windy City scene, working with his own quintet Rolldown as well as with Rob Mazurek’s Exploding Star Orchestra, Josh Berman, Ken Vandermark, Arrive, and numerous other ensembles. Sun Rooms is a trio with drummer Mike Reed and bassist Nate McBride, and Spacer is their second record to date for venerable Chicago jazz and blues label Delmark. Adasiewicz started his musical career on drums (he was formerly in Pinetop Seven); he switched to vibes in the late 90s and is a musician who explores the instrument’s mettle without a chordal foil, building gossamer masses and rhythmic variations with spellbinding detail. Sun Rooms is about as open a vehicle for his work as could be imagined, stripped down to unadorned presentation with the dry, swinging accompaniment of bass and drums over which Adasiewicz lets fly. The instrumentation is similar to some of Dickerson’s trios of the late 70s and early 80s, though with a predilection to shorter tunes and vignettes. As a composer and interpreter, Adasiewicz favors the knotty ambiguity and harmonic complexity of pianist-composers Andrew Hill, Sun Ra, and Hasaan Ibn Ali, though his own tunes are certainly “his.” On Spacer, all but two pieces are by the vibraphonist; McBride contributes “The Volunteer” and Dutch trumpeter Eric Boeren penned “Bobbie.”
Two solo pieces bookend the disc, with “Solo One” sounding almost like a chopped-up Oval composition, though Adasiewicz’ striking technique, developing overtones against terse clips, is entirely acoustic and real-time. “Hi Touch” puts a tumbling, round melody in collusion with a rather tough vamp that breaks out into stuttering asides. The leader’s solo unfolds into a staccato carpet as he balances sharp tones with rounder assemblages. McBride and Reed offer a throaty and insistent counterpoint with the bassist’s calloused grit reminiscent of Henry Grimes, while Reed maintains a no-frills sense of time, curiously both relaxed and aggressive. “Run Fly” is a slinky near-rumba, the drummer’s rim shots and loose attack alternating between smooth post-bop and bare-minimum funk. The theme is glorious and glassy, Adasiewicz building a precise plenum of sound that fills every nook and cranny while maintaining a cool, bright distance.
“Pillow” marks time with a dusky sensibility, vibes and bass outlining a stark and suspended image before Adasiewicz telescopes dotted lines into a woody, resonant tonal area. His affinity for Andrew Hill is especially clear on this piece, which recalls the contrasting shrouds and open areas of that composer’s work. It’s tough music, but such confounding aesthetics can be extremely rewarding. Programmatically, McBride’s “The Volunteer” offers the levity of a bright, playful bounce, gently swinging music that nevertheless presents involved and active interplay. Against the pull of a pizzicato yoke, Adasiewicz toys with flatness and shimmer, layering and spattering but maintaining a connection to thematic comfort. “Diesel” swings madly around and underneath the vibraphonist’s ropey statements, Reed chomping at the bit before getting in a cracking, martial solo. “Waiting in the Attic” expounds beautifully on a familiar phrase fragment that Adasciewicz has made use of several times — namely, a plaintive and warm riff on the theme from Brazil. There is energy and intensity to the piece as brushes and vibes create an agitated stew of fiddling repetition, though the underlying state is almost dreamlike. While there may be a number of opportunities to hear Adasiewicz in top form, Sun Rooms is a particularly fascinating trio that gives the vibraphonist ample room to stretch. It’s no wonder that he and his mates on Spacer are among Chicago’s first-call jazzmen.
 
Состав
Jason Adasiewicz - vibraphone;
Nate McBride - bass;
Mike Reed - drums
По всем вопросам пишите личное сообщение пользователю M0p94ok.
02:09
167
Нет комментариев. Ваш будет первым!