Поиск

(Jazz) Lee Ritenour - First Course - 1976, APE (image + .cue), lossless

Треклист:
Lee Ritenour - First Course
Страна: USA
Жанр: Jazz
Год выпуска: 1976
Формат: APE (image + .cue)
Битрейт аудио: lossless
Продолжительность: 41:20
Трэклист:
Ritenour, Lee - First Course
01. A Little Bit Of This And A Little Bit Of That
02. Sweet Syncopation
03. Theme From Three Days Of The Condor
04. Fatback
05. Memories Past
06. Caterpillar
07. Canticle ForThe Universe
08. Wild Rice
09. Ohla Maria (Amparo)
Доп. информация: Один из первых сольных альбомов Lee Ritenour.
Официальный сайт Lee Ritenour: www.leeritenour.com
 
Отчет EAC
Exact Audio Copy V0.99 prebeta 4 from 23. January 2008
EAC extraction logfile from 21. March 2008, 16:08
Ritenour, Lee / First Course
Used drive : MATSHITADVD-RAM UJ-842 Adapter: 0 ID: 0
Read mode : Secure
Utilize accurate stream : Yes
Defeat audio cache : Yes
Make use of C2 pointers : No
Read offset correction : 102
Overread into Lead-In and Lead-Out : No
Fill up missing offset samples with silence : Yes
Delete leading and trailing silent blocks : No
Null samples used in CRC calculations : Yes
Used interface : Native Win32 interface for Win NT & 2000
Used output format : Internal WAV Routines
Sample format : 44.100 Hz; 16 Bit; Stereo
TOC of the extracted CD
Track | Start | Length | Start sector | End sector
---------------------------------------------------------
1 | 0:00.00 | 6:18.37 | 0 | 28386
2 | 6:18.37 | 4:49.05 | 28387 | 50066
3 | 11:07.42 | 4:09.65 | 50067 | 68806
4 | 15:17.32 | 4:21.33 | 68807 | 88414
5 | 19:38.65 | 1:54.07 | 88415 | 96971
6 | 21:32.72 | 4:22.73 | 96972 | 116694
7 | 25:55.70 | 6:13.30 | 116695 | 144699
8 | 32:09.25 | 5:35.32 | 144700 | 169856
9 | 37:44.57 | 3:49.68 | 169857 | 187099
Range status and errors
Selected range
Filename C:\Documents\PERSONAL\Test_CD\Ritenour, Lee - First Course.wav
Peak level 100.0 %
Range quality 100.0 %
Copy CRC 26FD3B35
Copy OK
No errors occurred
AccurateRip summary
Track 1 accurately ripped (confidence 1) [66AED018]
Track 2 accurately ripped (confidence 1) [863A95C0]
Track 3 accurately ripped (confidence 1) [5BDDA2C2]
Track 4 accurately ripped (confidence 1) [BCE566AB]
Track 5 accurately ripped (confidence 1) [136E97F5]
Track 6 accurately ripped (confidence 1) [AB32CD54]
Track 7 accurately ripped (confidence 1) [A1445FA8]
Track 8 accurately ripped (confidence 1) [65BF589F]
Track 9 accurately ripped (confidence 1) [E89E95CB]
All tracks accurately ripped
End of status report
Приватный:
Нет (DHT включён)
Размер:
235.36 Мб (246,797,431 байт) » файлов: 4
Участники:
0 раздают, 0 качают (0 участников всего)
Внешние участники:
7 раздают, 2 качают (9 участников всего) [ Обновить ]
Никого нет на раздаче - пишите личное сообщение M0p94ok
No seeders - write personal message to M0p94ok
12:23
25
Нет комментариев. Ваш будет первым!