Поиск

(Jazz) Chick Corea - The Song Of Singing - 1970, FLAC (tracks+.cue), lossless

(Jazz) Chick Corea - The Song Of Singing - 1970, FLAC (tracks+.cue), lossless
Треклист:
Chick Corea - The Song Of Singing
Жанр: Jazz
Год выпуска : 1970
Аудио кодек: FLAC
Тип рипа: tracks+.cue
Битрейт аудио: lossless
Продолжительность: 00:35:56
Признательность за рип: Sarchiapone

1. Toy Room (5:53)
2. Ballad I (4:19)
3. Rhymes (6:53)
4. Flesh (6:10)
5. Ballad III (5:36)
6. Nefertitti (7:05)
 
ЕАС
Exact Audio Copy V0.99 prebeta 4 from 23. January 2008
EAC extraction logfile from 11. November 2008, 0:16
Chick Corea / The Song Of Singing
Used drive : PLEXTOR CD-R PREMIUM2 Adapter: 1 ID: 1
Read mode : Secure
Utilize accurate stream : Yes
Defeat audio cache : Yes
Make use of C2 pointers : No
Read offset correction : 30
Overread into Lead-In and Lead-Out : No
Fill up missing offset samples with silence : Yes
Delete leading and trailing silent blocks : No
Null samples used in CRC calculations : Yes
Used interface : Installed external ASPI interface
Gap handling : Appended to previous track
Used output format : User Defined Encoder
Selected bitrate : 32 kBit/s
Quality : High
Add ID3 tag : No
Command line compressor : C:\Programmi\FLAC\flac.exe
Additional command line options : -8 -V -T "ARTIST=%a" -T "TITLE=%t" -T "ALBUM=%g" -T "DATE=%y" -T "TRACKNUMBER=%n" -T "GENRE=%m" -T "COMMENT=EAC FLAC -8" %s
TOC of the extracted CD
Track | Start | Length | Start sector | End sector
---------------------------------------------------------
1 | 0:00.00 | 5:53.12 | 0 | 26486
2 | 5:53.12 | 4:19.25 | 26487 | 45936
3 | 10:12.37 | 6:53.63 | 45937 | 76974
4 | 17:06.25 | 6:10.12 | 76975 | 104736
5 | 23:16.37 | 5:36.73 | 104737 | 130009
6 | 28:53.35 | 7:05.07 | 130010 | 161891
Track 1
Filename C:\My Rip\01 - Toy Room.wav
Pre-gap length 0:00:02.00
Peak level 99.8 %
Track quality 100.0 %
Test CRC A8308A3E
Copy CRC A8308A3E
Track not present in AccurateRip database
Copy OK
Track 2
Filename C:\My Rip\02 - Ballad I.wav
Pre-gap length 0:00:00.93
Peak level 70.0 %
Track quality 99.9 %
Test CRC 2BBB8B16
Copy CRC 2BBB8B16
Track not present in AccurateRip database
Copy OK
Track 3
Filename C:\My Rip\03 - Rhymes.wav
Pre-gap length 0:00:01.16
Peak level 99.9 %
Track quality 100.0 %
Test CRC 9CE6566C
Copy CRC 9CE6566C
Track not present in AccurateRip database
Copy OK
Track 4
Filename C:\My Rip\04 - Flesh.wav
Pre-gap length 0:00:02.60
Peak level 100.0 %
Track quality 100.0 %
Test CRC FC949384
Copy CRC FC949384
Track not present in AccurateRip database
Copy OK
Track 5
Filename C:\My Rip\05 - Ballad III.wav
Pre-gap length 0:00:01.49
Peak level 86.2 %
Track quality 100.0 %
Test CRC 0DDA8332
Copy CRC 0DDA8332
Track not present in AccurateRip database
Copy OK
Track 6
Filename C:\My Rip\06 - Nefertitti.wav
Pre-gap length 0:00:02.37
Peak level 100.0 %
Track quality 100.0 %
Test CRC 41F3F3C4
Copy CRC 41F3F3C4
Track not present in AccurateRip database
Copy OK
None of the tracks are present in the AccurateRip database
No errors occurred
End of status report
Приватный:
Нет (DHT включён)
Размер:
203.86 Мб (213,759,675 байт) » файлов: 25
Участники:
0 раздают, 0 качают (0 участников всего)
Внешние участники:
3 раздают, 1 качают (4 участников всего) [ Обновить ]
No seeders - write a personal message to user M0p94ok. Нет сидеров - пишите личное сообщение пользователю M0p94ok.
05:12
66
Нет комментариев. Ваш будет первым!