Вы используете незарегистрированную версию компонента "Вкладки"!

Поиск

(Hard Bop, Post-Bop) Benny Bailey Quintet - Peruvian Nights - Live - 1989, FLAC (image+.cue), lossless

Треклист:
Benny Bailey Quintet / Peruvian Nights - Live
Жанр: Hard Bop, Post-Bop
Страна-производитель диска: Switzerland
Год издания диска: 1989
Издатель (лейбл): TCB Records
Номер по каталогу: TCB 96102
Аудиокодек: FLAC (*.flac)
Тип рипа: image+.cue
Битрейт аудио: lossless
Продолжительность: 60:06
Источник (релизер): ostereo.ru
Наличие сканов в содержимом раздачи: нет
Треклист:
1.Deep Soul
2.Reflectory
3.Caballeros
4.Hot House
5.No Mo Blues
6.Neptunis
7.Peruvian Nights
8.Blues East
9.Set Call
 
Лог создания рипа
Exact Audio Copy V1.0 beta 1 from 15. November 2010
EAC extraction logfile from 19. May 2011, 19:48
Benny Bailey Quintet / Peruvian Nights Live
Used drive : ATAPI DVD A DH20A4P Adapter: 1 ID: 0
Read mode : Secure
Utilize accurate stream : Yes
Defeat audio cache : Yes
Make use of C2 pointers : No
Read offset correction : 6
Overread into Lead-In and Lead-Out : No
Fill up missing offset samples with silence : Yes
Delete leading and trailing silent blocks : No
Null samples used in CRC calculations : Yes
Used interface : Installed external ASPI interface
Used output format : User Defined Encoder
Selected bitrate : 1024 kBit/s
Quality : High
Add ID3 tag : No
Command line compressor : C:\Program Files\Exact Audio Copy\Flac\flac.exe
Additional command line options : -6 -V -T "ARTIST=%a" -T "TITLE=%t" -T "ALBUM=%g" -T "DATE=%y" -T "TRACKNUMBER=%n" -T "GENRE=%m" -T "COMMENT=EAC FLAC -6" %s
TOC of the extracted CD
Track | Start | Length | Start sector | End sector
---------------------------------------------------------
1 | 0:00.00 | 8:29.27 | 0 | 38201
2 | 8:29.27 | 8:34.35 | 38202 | 76786
3 | 17:03.62 | 5:26.45 | 76787 | 101281
4 | 22:30.32 | 7:28.43 | 101282 | 134924
5 | 29:59.00 | 9:59.55 | 134925 | 179904
6 | 39:58.55 | 6:16.00 | 179905 | 208104
7 | 46:14.55 | 7:46.20 | 208105 | 243074
8 | 54:01.00 | 10:54.15 | 243075 | 292139
9 | 64:55.15 | 1:43.60 | 292140 | 299924
Range status and errors
Selected range
Filename D:\Benny Bailey Quintet - Peruvian Nights Live - [oStereo.ru] -1989 - TCB.wav
Peak level 100.0 %
Extraction speed 0.0 X
Range quality 100.0 %
Test CRC 4829A7E8
Copy CRC 4829A7E8
Copy OK
No errors occurred
AccurateRip summary
Track 1 cannot be verified as accurate (confidence 1) [1EDB0CBA], AccurateRip returned [85DF8FB6]
Track 2 cannot be verified as accurate (confidence 1) [D99488A2], AccurateRip returned [FA715F4B]
Track 3 cannot be verified as accurate (confidence 1) [3BB28284], AccurateRip returned [A82C2BDC]
Track 4 cannot be verified as accurate (confidence 1) [5B408D44], AccurateRip returned [8DDCDC87]
Track 5 cannot be verified as accurate (confidence 1) [279FC36D], AccurateRip returned [DBA7A332]
Track 6 cannot be verified as accurate (confidence 1) [148DE6DF], AccurateRip returned [10584BAC]
Track 7 cannot be verified as accurate (confidence 1) [BD9C42B4], AccurateRip returned [ADE385C6]
Track 8 cannot be verified as accurate (confidence 1) [5C80453C], AccurateRip returned [FC15BCF0]
Track 9 cannot be verified as accurate (confidence 1) [784BF21F], AccurateRip returned [A157C0CD]
No tracks could be verified as accurate
You may have a different pressing from the one(s) in the database
End of status report
==== Log checksum 734601BDF4C59907A2695420FBFFF0BD8D743681F5967BC613A46C7F96D3CD64 ====
 
Содержание индексной карты (.CUE)
REM GENRE Jazz
REM DATE 1989
REM DISCID 690F9F09
REM COMMENT "ExactAudioCopy v1.0b1"
PERFORMER "Benny Bailey Quintet"
TITLE "Peruvian Nights Live"
FILE "Benny Bailey Quintet - Peruvian Nights Live - [oStereo.ru] -1989 - TCB.flac" WAVE
TRACK 01 AUDIO
TITLE "Deep soul"
PERFORMER "Benny Bailey Quintet"
INDEX 01 00:00:00
TRACK 02 AUDIO
TITLE "Reflectory"
PERFORMER "Benny Bailey Quintet"
INDEX 00 08:12:00
INDEX 01 08:29:27
TRACK 03 AUDIO
TITLE "Caballeros"
PERFORMER "Benny Bailey Quintet"
INDEX 00 16:45:00
INDEX 01 17:03:62
TRACK 04 AUDIO
TITLE "Hot house"
PERFORMER "Benny Bailey Quintet"
INDEX 00 22:12:42
INDEX 01 22:30:32
TRACK 05 AUDIO
TITLE "No mo blues"
PERFORMER "Benny Bailey Quintet"
INDEX 00 29:40:00
INDEX 01 29:59:00
TRACK 06 AUDIO
TITLE "Netpunis"
PERFORMER "Benny Bailey Quintet"
INDEX 00 39:45:30
INDEX 01 39:58:55
TRACK 07 AUDIO
TITLE "Peruvian nights"
PERFORMER "Benny Bailey Quintet"
INDEX 00 45:54:20
INDEX 01 46:14:55
TRACK 08 AUDIO
TITLE "Blues East"
PERFORMER "Benny Bailey Quintet"
INDEX 00 53:30:50
INDEX 01 54:01:00
TRACK 09 AUDIO
TITLE "Set call"
PERFORMER "Benny Bailey Quintet"
INDEX 00 64:35:42
INDEX 01 64:55:15
 
Состав
Benny Bailey (tp)
Carlo Shoeb (ts,ss)
Peter Eigenmann (g)
Reggie Johnson (b)
Peter Schmidlin (ds)
Как я понял это переиздание 2011 года. Пожалуй одна из самых интересных записй хард бопа что попадались в этом году.
Any questions - support@pro-jazz.com.
Есть вопросы - support@pro-jazz.com
06:28
219
Нет комментариев. Ваш будет первым!