Поиск

(Funk, Soul) [CD] Victor Willis - Solo Man: Historical R&B/Soul 1979 - 2015, FLAC (tracks+.cue), lossless

(Funk, Soul) [CD] Victor Willis - Solo Man: Historical R&B/Soul 1979 - 2015, FLAC (tracks+.cue), lossless
Треклист:
Victor Willis - Solo Man: Historical R&B/Soul 1979 Жанр: Funk, Soul
Носитель: CD
Год издания: 2015
Издатель (лейбл): Harlem West Records
Номер по каталогу: HWRCD 1001
Аудиокодек: FLAC (*.flac)
Тип рипа: tracks+.cue
Битрейт аудио: lossless
Продолжительность: 47:39
Rip by JET 1
Наличие сканов в содержимом раздачи: да
Треклист:
01. Come Go With Me (5:19)
02. I Stuck It Rich (5:38)
03. Come Back To America (5:09)
04. Follow Through (5:54)
05. Krazy Bout Your Love (4:45)
06. Could It Be (5:03)
07. Body Wants To Be Loved (4:56)
08. Yes I Can (5:16)
09. Solo Man (5:38)
 
 
Несколько слов на английском
Solo Man is the debut studio album by Victor Willis, original lead singer of the disco group Village People. It was released on August 21, 2015, 36 years after it was recorded. The album is a mixture of traditional R&B, gospel and soul styles.
After five hit albums with Village People, Willis left the group in 1979 to record a solo album. The group's label at the time, Casablanca Records, anticipated releasing the album and announced it to the media. After Willis' departure, Village People album sales plummeted causing Casablanca to drop the band from the label. Willis was still under contract with the Village People production company and the album was caught up in the turmoil.
In 1981, rights to the solo album was returned to Willis but soon after, the master tapes went missing. The tapes were finally located in 2007. For most of the tracks, Willis utilized the Village People band Gypsy Lane with rhythm arrangements by Horace Ott. For the remaining tracks, top studio musicians were assembled under the direction of Ray Chew.
 
 
Лог создания рипа
Exact Audio Copy V1.0 beta 3 from 29. August 2011
EAC extraction logfile from 7. December 2015, 14:40
Victor Willis / Solo Man
Used drive : GENERIC CDRCB05 Adapter: 4 ID: 0
Read mode : Secure
Utilize accurate stream : Yes
Defeat audio cache : Yes
Make use of C2 pointers : No
Read offset correction : 102
Overread into Lead-In and Lead-Out : No
Fill up missing offset samples with silence : Yes
Delete leading and trailing silent blocks : No
Null samples used in CRC calculations : Yes
Used interface : Native Win32 interface for Win NT & 2000
Gap handling : Appended to previous track
Used output format : User Defined Encoder
Selected bitrate : 1024 kBit/s
Quality : High
Add ID3 tag : No
Command line compressor : C:\Program Files\FLAC\flac.exe
Additional command line options : -8 -V -T "ARTIST=%artist%" -T "TITLE=%title%" -T "ALBUM=%albumtitle%" -T "DATE=%year%" -T "TRACKNUMBER=%tracknr%" -T "GENRE=%genre%" -T "PERFORMER=%albuminterpret%" -T "COMPOSER=%composer%" %haslyrics%--tag-from-file=LYRICS="%lyricsfile%"%haslyrics% -T "ALBUMARTIST=%albumartist%" -T "DISCNUMBER=%cdnumber%" -T "TOTALDISCS=%totalcds%" -T "TOTALTRACKS=%numtracks%" -T "COMMENT=%comment%" %source% -o %dest%
TOC of the extracted CD
Track | Start | Length | Start sector | End sector
---------------------------------------------------------
1 | 0:00.00 | 5:19.17 | 0 | 23941
2 | 5:19.17 | 5:38.08 | 23942 | 49299
3 | 10:57.25 | 5:09.10 | 49300 | 72484
4 | 16:06.35 | 5:54.23 | 72485 | 99057
5 | 22:00.58 | 4:45.02 | 99058 | 120434
6 | 26:45.60 | 5:03.00 | 120435 | 143159
7 | 31:48.60 | 4:55.58 | 143160 | 165342
8 | 36:44.43 | 5:15.52 | 165343 | 189019
9 | 42:00.20 | 5:38.30 | 189020 | 214399
Track 1
Filename F:\POSTS\Victor Willis - Solo Man (1979) [2015]\01 - Come Go With Me.wav
Pre-gap length 0:00:02.00
Peak level 96.6 %
Extraction speed 1.5 X
Track quality 100.0 %
Test CRC C4DF86B7
Copy CRC C4DF86B7
Track not present in AccurateRip database
Copy OK
Track 2
Filename F:\POSTS\Victor Willis - Solo Man (1979) [2015]\02 - I Stuck It Rich.wav
Peak level 96.6 %
Extraction speed 1.7 X
Track quality 100.0 %
Test CRC 35070623
Copy CRC 35070623
Track not present in AccurateRip database
Copy OK
Track 3
Filename F:\POSTS\Victor Willis - Solo Man (1979) [2015]\03 - Come Back To America.wav
Peak level 96.6 %
Extraction speed 1.9 X
Track quality 100.0 %
Test CRC 7BA4B40D
Copy CRC 7BA4B40D
Track not present in AccurateRip database
Copy OK
Track 4
Filename F:\POSTS\Victor Willis - Solo Man (1979) [2015]\04 - Follow Through.wav
Peak level 96.6 %
Extraction speed 2.1 X
Track quality 100.0 %
Test CRC 40891DBD
Copy CRC 40891DBD
Track not present in AccurateRip database
Copy OK
Track 5
Filename F:\POSTS\Victor Willis - Solo Man (1979) [2015]\05 - Krazy Bout Your Love.wav
Peak level 96.6 %
Extraction speed 2.2 X
Track quality 100.0 %
Test CRC D88B76E2
Copy CRC D88B76E2
Track not present in AccurateRip database
Copy OK
Track 6
Filename F:\POSTS\Victor Willis - Solo Man (1979) [2015]\06 - Could It Be.wav
Peak level 96.6 %
Extraction speed 2.4 X
Track quality 100.0 %
Test CRC 9817B6D7
Copy CRC 9817B6D7
Track not present in AccurateRip database
Copy OK
Track 7
Filename F:\POSTS\Victor Willis - Solo Man (1979) [2015]\07 - Body Wants To Be Loved.wav
Peak level 96.6 %
Extraction speed 2.2 X
Track quality 99.9 %
Test CRC 40B70871
Copy CRC 40B70871
Track not present in AccurateRip database
Copy OK
Track 8
Filename F:\POSTS\Victor Willis - Solo Man (1979) [2015]\08 - Yes I Can.wav
Peak level 96.6 %
Extraction speed 2.4 X
Track quality 99.9 %
Test CRC C1EE80E7
Copy CRC C1EE80E7
Track not present in AccurateRip database
Copy OK
Track 9
Filename F:\POSTS\Victor Willis - Solo Man (1979) [2015]\09 - Solo Man.wav
Peak level 96.6 %
Extraction speed 2.8 X
Track quality 100.0 %
Test CRC 53437A5E
Copy CRC 53437A5E
Track not present in AccurateRip database
Copy OK
None of the tracks are present in the AccurateRip database
No errors occurred
End of status report
==== Log checksum 37FD62903B31DC24C15FE68DBF9846D66ECF5D12FD4D18BADE5A9DD7928F3FAC ====
 
Содержание индексной карты (.CUE)
REM GENRE Soul
REM DATE 2015
REM DISCID 690B2A09
REM COMMENT "ExactAudioCopy v1.0b3"
PERFORMER "Victor Willis"
TITLE "Solo Man"
FILE "01 - Come Go With Me.wav" WAVE
TRACK 01 AUDIO
TITLE "Come Go With Me"
PERFORMER "Victor Willis"
INDEX 01 00:00:00
FILE "02 - I Stuck It Rich.wav" WAVE
TRACK 02 AUDIO
TITLE "I Stuck It Rich"
PERFORMER "Victor Willis"
INDEX 01 00:00:00
FILE "03 - Come Back To America.wav" WAVE
TRACK 03 AUDIO
TITLE "Come Back To America"
PERFORMER "Victor Willis"
INDEX 01 00:00:00
FILE "04 - Follow Through.wav" WAVE
TRACK 04 AUDIO
TITLE "Follow Through"
PERFORMER "Victor Willis"
INDEX 01 00:00:00
FILE "05 - Krazy Bout Your Love.wav" WAVE
TRACK 05 AUDIO
TITLE "Krazy Bout Your Love"
PERFORMER "Victor Willis"
INDEX 01 00:00:00
FILE "06 - Could It Be.wav" WAVE
TRACK 06 AUDIO
TITLE "Could It Be"
PERFORMER "Victor Willis"
INDEX 01 00:00:00
FILE "07 - Body Wants To Be Loved.wav" WAVE
TRACK 07 AUDIO
TITLE "Body Wants To Be Loved"
PERFORMER "Victor Willis"
INDEX 01 00:00:00
FILE "08 - Yes I Can.wav" WAVE
TRACK 08 AUDIO
TITLE "Yes I Can"
PERFORMER "Victor Willis"
INDEX 01 00:00:00
FILE "09 - Solo Man.wav" WAVE
TRACK 09 AUDIO
TITLE "Solo Man"
PERFORMER "Victor Willis"
INDEX 01 00:00:00
Приватный:
Нет (DHT включён)
Размер:
381.15 Мб (399,666,333 байт) » файлов: 19
Участники:
0 раздают, 0 качают (0 участников всего)
Внешние участники:
2 раздают, 1 качают (3 участников всего) [ Обновить ]
Есть вопросы - пишите личное сообщение пользователю M0p94ok.
08:59
90
Нет комментариев. Ваш будет первым!