Поиск

(Free Jazz, Funk) Sun Ra and His Solar Arkestra - On Jupiter - 2008 (1979), FLAC (tracks+.cue), lossless

Треклист:
Sun Ra and His Solar Arkestra - On Jupiter
Жанр: Free Jazz, Funk
Год выпуска диска: 2008
Производитель диска: Art Yard (ART YARD CD004)
Источник: вот.сиди (rroonnaann)
Аудио кодек: FLAC
Тип рипа: tracks+.cue
Битрейт аудио: lossless
Продолжительность: 29:46
Треклист:
1 On Jupiter 4:01 (Ra)
2 UFO 8:35 (Ra-Clarke-Richardson)
3 Seductive Fantasy 17:09 (Ra)
Originally released on the El Saturn record label, #101679.
Recorded mid to late May and on October 16th 1979 in New York.
Bass - Richard Williams
Bass Clarinet - Eloe Omoe
Bassoon, Flute, Percussion, Drums [Ancient Egyptian Infinity Lightning Drums] - James Jacson
Cello - Unknown Artist
Drums - Reg McDonald, Samarai Celestial
Drums, Vocals - Luqman Ali
Electric Bass - Steve Clarke
Electric Guitar - Skeeter McFarland, Taylor Richardson
Percussion - Atakatune
Piano, Electric Piano, Organ, Vocals, Composed By, Arranged By - Sun Ra
Saxophone [Alto], Flute, Oboe - Marshall Allen
Saxophone [Baritone] - Julian Pressley
Saxophone [Baritone], Flute, Percussion - Danny Ray Thompson
Saxophone [Tenor], Percussion, Vocals - John Gilmore
Trumpet - Eddie Gale
Trumpet, Vocals - Michael Ray
Violin - Unknown Artist
Vocals - June Tyson
 
Отчёт XLD
X Lossless Decoder version 20100123 (115.4)
XLD extraction logfile from 2010-03-22 21:00:48 +0100
Sun Ra / On Jupiter
Used drive : HL-DT-ST DVDRW GSA-S10N (revision BP08)
Use cdparanoia mode : YES (CDParanoia III 10.2 engine)
Disable audio cache : OK for the drive with cache less than 2750KB
Make use of C2 pointers : NO
Read offset correction : 667
Max retry count : 100
TOC of the extracted CD
Track | Start | Length | Start sector | End sector
---------------------------------------------------------
1 | 00:00:00 | 04:01:63 | 0 | 18137
2 | 04:01:63 | 08:35:19 | 18138 | 56781
3 | 12:37:07 | 17:08:74 | 56782 | 133955
All Tracks
Album gain : -5.94 dB
Peak : 0.966156
Track 01
Filename : /XLD/Sun Ra - 2008 - On Jupiter - FLAC/01 On Jupiter.flac
Pre-gap length : 00:02:00
Track gain : -5.85 dB
Peak : 0.966095
CRC32 hash (test run) : 5DE12ADC
CRC32 hash : 5DE12ADC
CRC32 hash (skip zero) : 5C6A9555
AccurateRip signature : 59AE537F
->Accurately ripped! (confidence 2)
Statistics
Read error : 0
Skipped (treated as error) : 0
Edge jitter error (maybe fixed) : 0
Atom jitter error (maybe fixed) : 0
Drift error (maybe fixed) : 0
Dropped bytes error (maybe fixed) : 0
Duplicated bytes error (maybe fixed) : 0
Inconsistency in error sectors : 0
Track 02
Filename : /XLD/Sun Ra - 2008 - On Jupiter - FLAC/02 UFO.flac
Pre-gap length : 00:03:50
Track gain : -6.85 dB
Peak : 0.966156
CRC32 hash (test run) : 48797529
CRC32 hash : 48797529
CRC32 hash (skip zero) : 5B08DCE5
AccurateRip signature : F531EA5C
->Accurately ripped! (confidence 2)
Statistics
Read error : 0
Skipped (treated as error) : 0
Edge jitter error (maybe fixed) : 0
Atom jitter error (maybe fixed) : 0
Drift error (maybe fixed) : 0
Dropped bytes error (maybe fixed) : 0
Duplicated bytes error (maybe fixed) : 0
Inconsistency in error sectors : 0
Track 03
Filename : /XLD/Sun Ra - 2008 - On Jupiter - FLAC/03 Seductive Fantasy.flac
Pre-gap length : 00:00:59
Track gain : -5.18 dB
Peak : 0.966125
CRC32 hash (test run) : 6655A595
CRC32 hash : 6655A595
CRC32 hash (skip zero) : FF1AF95B
AccurateRip signature : 23CD393E
->Accurately ripped! (confidence 2)
Statistics
Read error : 0
Skipped (treated as error) : 0
Edge jitter error (maybe fixed) : 0
Atom jitter error (maybe fixed) : 0
Drift error (maybe fixed) : 0
Dropped bytes error (maybe fixed) : 0
Duplicated bytes error (maybe fixed) : 0
Inconsistency in error sectors : 0
No errors occurred
End of status report
 
Отчёт Audiocheckera
AUDIOCHECKER v2.0 beta (build 457) - by Dester - opdester@freemail.hu
~~~~~~~~~~~~~~~~~~~~~~~~~~~~~~~~~~
-=== DO NOT EDIT THIS FILE! ===-
Path: ...\Sun Ra - 2008 - On Jupiter - FLAC
1 -=- 01 On Jupiter.flac -=- CDDA (100%)
2 -=- 02 UFO.flac -=- CDDA (100%)
3 -=- 03 Seductive Fantasy.flac -=- CDDA (100%)
Summary 100,00% CDDA
2637892
 
cue
TITLE "On Jupiter"
PERFORMER "Sun Ra"
CATALOG 7527250248226
REM GENRE "Jazz"
REM DATE 2008
REM REPLAYGAIN_ALBUM_GAIN -5.94 dB
REM REPLAYGAIN_ALBUM_PEAK 0.966156
FILE "01 On Jupiter.wav" WAVE
TRACK 01 AUDIO
TITLE "On Jupiter"
ISRC GBTFX0800047
REM REPLAYGAIN_TRACK_GAIN -5.85 dB
REM REPLAYGAIN_TRACK_PEAK 0.966095
INDEX 01 00:00:00
TRACK 02 AUDIO
TITLE "UFO"
ISRC GBTFX0800047
REM REPLAYGAIN_TRACK_GAIN -6.85 dB
REM REPLAYGAIN_TRACK_PEAK 0.966156
INDEX 00 03:58:13
FILE "02 UFO.wav" WAVE
INDEX 01 00:00:00
TRACK 03 AUDIO
TITLE "Seductive Fantasy"
ISRC GBTFX0800048
REM REPLAYGAIN_TRACK_GAIN -5.18 dB
REM REPLAYGAIN_TRACK_PEAK 0.966125
INDEX 00 08:34:35
FILE "03 Seductive Fantasy.wav" WAVE
INDEX 01 00:00:00
По всем вопросам пишите личное сообщение пользователю M0p94ok.
01:59
232
Нет комментариев. Ваш будет первым!