Вы используете незарегистрированную версию компонента "Вкладки"!

Поиск

(Free Improvisation) Kathy-Horvath Lajos - Lorinszky Attila - Sketches - 2001, FLAC (tracks+.cue) lossless

Треклист:
Kathy-Horvath Lajos - Lorinszky Attila - Sketches
Жанр: Free Improvisation
Страна-производитель диска: Hungary
Год издания диска: 2001
Издатель (лейбл): X-Produkcio
Номер по каталогу: XP 012
Аудио кодек: FLAC (*.flac)
Тип рипа: tracks+.cue
Битрейт аудио: lossless
Продолжительность: 1:00:18
Источник (релизер): собственный рип с оригинального диска.
Наличие сканов в содержимом раздачи: да
Треклист:
01. Tétel 1. / Part 1.
02. Tétel 2. / Part 2.
03. Tétel 3. / Part 3.
04. Bőgő szóló / Double Bass solo
05. Hegedű szóló / Violin solo
06. Arabos / Arabian Mood
 
Лог создания рипа
Exact Audio Copy V0.99 prebeta 5 from 4. May 2009
EAC extraction logfile from 8. April 2011, 9:42
Kathy-Horvath Lajos - Lorinszky Attila / Sketches
Used drive : TSSTcorpCDDVDW SH-S222A Adapter: 1 ID: 0
Read mode : Secure
Utilize accurate stream : Yes
Defeat audio cache : Yes
Make use of C2 pointers : No
Read offset correction : 6
Overread into Lead-In and Lead-Out : No
Fill up missing offset samples with silence : Yes
Delete leading and trailing silent blocks : No
Null samples used in CRC calculations : Yes
Used interface : Installed external ASPI interface
Gap handling : Appended to previous track
Used output format : User Defined Encoder
Selected bitrate : 768 kBit/s
Quality : High
Add ID3 tag : No
Command line compressor : C:\Tool\Compress\FLAC\flac.exe
Additional command line options : -8 -V -T "ARTIST=%a" -T "TITLE=%t" -T "ALBUM=%g" -T "DATE=%y" -T "TRACKNUMBER=%n" -T "TOTALTRACKS=%x" -T "GENRE=%m" -T "ALBUM ARTIST=%v" -T "COMMENT=EAC V0.99 prebeta 5, Secure Mode, Test & Copy, AccurateRip, FLAC -8" %s
TOC of the extracted CD
Track | Start | Length | Start sector | End sector
---------------------------------------------------------
1 | 0:00.00 | 5:46.45 | 0 | 25994
2 | 5:46.45 | 25:35.35 | 25995 | 141154
3 | 31:22.05 | 14:19.18 | 141155 | 205597
4 | 45:41.23 | 4:44.48 | 205598 | 226945
5 | 50:25.71 | 3:31.09 | 226946 | 242779
6 | 53:57.05 | 6:23.70 | 242780 | 271574
Track 1
Filename C:\! UPLOAD\Kathy-Horvath Lajos - Lorinszky Attila - Sketches (2001) [FLAC] {X-Produkcio}\01 - Part 1.wav
Pre-gap length 0:00:02.00
Peak level 94.3 %
Track quality 100.0 %
Test CRC D08FE79F
Copy CRC D08FE79F
Track not present in AccurateRip database
Copy OK
Track 2
Filename C:\! UPLOAD\Kathy-Horvath Lajos - Lorinszky Attila - Sketches (2001) [FLAC] {X-Produkcio}\02 - Part 2.wav
Pre-gap length 0:00:04.00
Peak level 99.0 %
Track quality 99.9 %
Test CRC C9525DB3
Copy CRC C9525DB3
Track not present in AccurateRip database
Copy OK
Track 3
Filename C:\! UPLOAD\Kathy-Horvath Lajos - Lorinszky Attila - Sketches (2001) [FLAC] {X-Produkcio}\03 - Part 3.wav
Pre-gap length 0:00:04.00
Peak level 96.0 %
Track quality 100.0 %
Test CRC F4B77EA7
Copy CRC F4B77EA7
Track not present in AccurateRip database
Copy OK
Track 4
Filename C:\! UPLOAD\Kathy-Horvath Lajos - Lorinszky Attila - Sketches (2001) [FLAC] {X-Produkcio}\04 - Double bass solo.wav
Pre-gap length 0:00:04.00
Peak level 86.9 %
Track quality 100.0 %
Test CRC EFA9CDAD
Copy CRC EFA9CDAD
Track not present in AccurateRip database
Copy OK
Track 5
Filename C:\! UPLOAD\Kathy-Horvath Lajos - Lorinszky Attila - Sketches (2001) [FLAC] {X-Produkcio}\05 - Violin solo.wav
Pre-gap length 0:00:04.00
Peak level 97.2 %
Track quality 100.0 %
Test CRC F0546AAF
Copy CRC F0546AAF
Track not present in AccurateRip database
Copy OK
Track 6
Filename C:\! UPLOAD\Kathy-Horvath Lajos - Lorinszky Attila - Sketches (2001) [FLAC] {X-Produkcio}\06 - Arabian Mood.wav
Pre-gap length 0:00:04.00
Peak level 76.0 %
Track quality 100.0 %
Test CRC 142E82AB
Copy CRC 142E82AB
Track not present in AccurateRip database
Copy OK
None of the tracks are present in the AccurateRip database
No errors occurred
End of status report
 
Содержание индексной карты (.CUE)
REM GENRE Avantgarde
REM DATE 2001
REM DISCID 530E2506
REM COMMENT "ExactAudioCopy v0.99pb5"
PERFORMER "Kathy-Horvath Lajos - Lorinszky Attila"
TITLE "Sketches"
FILE "01 - Part 1.wav" WAVE
TRACK 01 AUDIO
TITLE "Part 1"
PERFORMER "Kathy-Horvath Lajos - Lorinszky Attila"
INDEX 01 00:00:00
TRACK 02 AUDIO
TITLE "Part 2"
PERFORMER "Kathy-Horvath Lajos - Lorinszky Attila"
INDEX 00 05:42:45
FILE "02 - Part 2.wav" WAVE
INDEX 01 00:00:00
TRACK 03 AUDIO
TITLE "Part 3"
PERFORMER "Kathy-Horvath Lajos - Lorinszky Attila"
INDEX 00 25:31:35
FILE "03 - Part 3.wav" WAVE
INDEX 01 00:00:00
TRACK 04 AUDIO
TITLE "Double bass solo"
PERFORMER "Kathy-Horvath Lajos - Lorinszky Attila"
INDEX 00 14:15:18
FILE "04 - Double bass solo.wav" WAVE
INDEX 01 00:00:00
TRACK 05 AUDIO
TITLE "Violin solo"
PERFORMER "Kathy-Horvath Lajos - Lorinszky Attila"
INDEX 00 04:40:48
FILE "05 - Violin solo.wav" WAVE
INDEX 01 00:00:00
TRACK 06 AUDIO
TITLE "Arabian Mood"
PERFORMER "Kathy-Horvath Lajos - Lorinszky Attila"
INDEX 00 03:27:09
FILE "06 - Arabian Mood.wav" WAVE
INDEX 01 00:00:00
Доп. информация:
Recorded 2001 in Studio P.
 
Об Kathy-Horvath Lajos
He was born into a family of famous musicians; his father Lajos Kathy Horváth Senior, and his uncle Sándor Horváth were among the most popular jazz guitarists of the forties and fifties. The young Kathy Horváth began to play the violin at the age of five, but he soon went on to experiment with the other instruments played at home: the piano, harp and cimbalom. He thought it inconceivable that he should play any one instrument better than another, and the “instrumental duels” fought with his father and cimbalom-player brother were an added inspiration, driving him to excel in all these instuments.
He continued his studies at the OSZK Musical Studio and drew inspiration from the violin pieces of Tchaikovsky, Brahms and Paganini as well as from jazz, gypsy, and the kind of entertainment music that could be characterized as a fusion of genres. Following this path brought him into contact with pianist György Cziffra, who had himself played for several years in the Arizona Night-Club – with Lajos Kathy Horváth Senior among others.
He became known as a performer of contemporary, fusion and free jazz at the beginning of the seventies, performing with pianists Béla Szakcsi, György Szabados, guitarist Gyula Babos, drummers Vilmos Jávori, Imre Kõszegi, saxophone-player Mihály Ráduly and with the groups Rákfogó, Ráduly, Szakcsi and Szabados.
The first album that recorded Lajos Kathy Horváth’s unique, individual style of playing was György Szabados’s The Wedding (Hungaroton, 1974), considered an outstanding album even on the international free jazz scene. This album has remained a significant and historic result of the fusion of contemporary music with avantgarde jazz. From that time on, the works of Bartók, Boulez, Schönberg, Ligeti, Kurtág, Lutos�avski, Penderecki, Stravinsky and Eötvös have remained Kathy Horváth’s main sources of inspiration.
In 1976, on a scholarship from the György Cziffra Foundation, he began to study at San Lise near Paris under Ivry Gitlis, whose style of playing has remained a decisive influence on him to this day. When György Cziffra introduced him to Yehudi Menuhin, the master took him on as his pupil, later making him his assistant in 1985. In 1983 Kathy Horváth won first prize at the Bartók Memorial Competition organized by Menuhin. During these years spent in Paris, he made several recordings with clarinet-saxophone player Yochk’o (József) Seffer who also lived in Paris. Of these recordings, Chromophonie 1. and Chromophonie 2. in particulare created quite a stir.
He returned to Hungary in 1990, at the end of the socialist regime. Since then he has performed in concerts as a soloist for the Philharmonic Orchestra, and in 1996 applied for and won the post of director of Sunhouse, the Gypsy Cultural Centre which also functions as the first Gypsy theatre. In recognition of his life works as composer and performer, he was awarded the Knight’s Cross Order of the Republic. That same year his album recorded jointly with bass-player Attila Lõrinszky entitled Sketches, was released.
 
Состав
Kathy-Horváth Lajos – violin
Lőrinszky Attila – double bass
Any questions -> support@pro-jazz.com. По всем вопросам пишите -> support@pro-jazz.com
10:51
151
Нет комментариев. Ваш будет первым!