Вы используете незарегистрированную версию компонента "Вкладки"!

Поиск

(Avant-Garde, Structured Improvisation) Earl Howard - Clepton - 2007, FLAC (tracks+.cue), lossless

(Avant-Garde, Structured Improvisation) Earl Howard - Clepton - 2007, FLAC (tracks+.cue), lossless
Треклист:
Earl Howard - Clepton
Жанр: Avant-Garde, Structured Improvisation
Год выпуска диска: 2007
Производитель диска: USA, Recorded Anthology of American Music, Inc.
Аудио кодек: FLAC
Тип рипа: tracks+.cue
Битрейт аудио: lossless
Продолжительность: 59:04
Трэклист:
1. Clepton (2006) - 38:01
Earl Howard - synthesizer, live processing
Georg Graewe - piano
Ernst Reijseger - cello
Gerry Hemingway - drums
2. Improvisation (2006) - 6:02
Earl Howard - synthesizer, live processing
Georg Graewe - piano
Ernst Reijseger - cello
Gerry Hemingway - drums
3. Rosebud (1989) - 14:54
Earl Howard - synthesizer
Gerry Hemingway - drums
Доп. информация:
(p)(c) 2007 Anthology of Recorded Music, Inc.
New World Records
80670-2
Это собственно не совсем джаз. Но участие в проекте известных джазовых музыкантов, а также отнесение этого альбома сайтом AMG к джазу, позволило мне разместить его в этом разделе. Думаю, здесь на него спрос будет большим, чем если разместить его где-нибудь в академической или электронной музыке.
 
Отчёт EAC
Exact Audio Copy V0.99 prebeta 4 from 23. January 2008
EAC extraction logfile from 12. April 2009, 11:42
Earl Howard / Clepton
Used drive : PLEXTOR DVDR PX-760A Adapter: 0 ID: 0
Read mode : Secure
Utilize accurate stream : Yes
Defeat audio cache : Yes
Make use of C2 pointers : No
Read offset correction : 30
Overread into Lead-In and Lead-Out : Yes
Fill up missing offset samples with silence : Yes
Delete leading and trailing silent blocks : No
Null samples used in CRC calculations : Yes
Used interface : Native Win32 interface for Win NT & 2000
Gap handling : Appended to previous track
Used output format : User Defined Encoder
Selected bitrate : 128 kBit/s
Quality : High
Add ID3 tag : No
Command line compressor : C:\Program Files\FLAC\flac.exe
Additional command line options : -8 -V -T "ARTIST=%a" -T "TITLE=%t" -T "ALBUM=%g" -T "DATE=%y" -T "TRACKNUMBER=%n" -T "GENRE=%m" -T "COMMENT=EAC FLAC -8" %s
TOC of the extracted CD
Track | Start | Length | Start sector | End sector
---------------------------------------------------------
1 | 0:00.00 | 38:02.15 | 0 | 171164
2 | 38:02.15 | 6:07.10 | 171165 | 198699
3 | 44:09.25 | 14:55.00 | 198700 | 265824
Track 1
Filename H:\Earl Howard - Clepton (2007) [FLAC]\01 - Clepton (2006).wav
Pre-gap length 0:00:02.00
Peak level 100.0 %
Track quality 100.0 %
Test CRC 3B223798
Copy CRC 3B223798
Track not present in AccurateRip database
Copy OK
Track 2
Filename H:\Earl Howard - Clepton (2007) [FLAC]\02 - Improvisation (2006).wav
Pre-gap length 0:00:00.55
Peak level 53.0 %
Track quality 100.0 %
Test CRC 0CF3DD55
Copy CRC 0CF3DD55
Track not present in AccurateRip database
Copy OK
Track 3
Filename H:\Earl Howard - Clepton (2007) [FLAC]\03 - Rosebud (1989).wav
Pre-gap length 0:00:04.18
Peak level 98.8 %
Track quality 100.0 %
Test CRC 23800E8F
Copy CRC 23800E8F
Track not present in AccurateRip database
Copy OK
None of the tracks are present in the AccurateRip database
No errors occurred
End of status report
Рип оригинального диска. Сканы прилагаются.
За релиз спасибо almouse
 
Мои раздачи на трекере
Вокальное и Хоровое искусства (lossless)
Jah Wobble - Requiem
Mozart - Requiem/Реквием (Dr. Stefan Klimo, Zdenek Kosler), Exultate, jubilate (Klaus Donath); Beethoven - Mass C-dur (Anton Nanut)
Оркестровая (lossless)
Joseph Haydn - Wiedenski klasyk - Trumpet Concerto (Alberto Lizzio) / Symphony No. 94 (Alfred Scholz)/ The Quartet No. 62 (Caspar da Salo)
Зарубежный Джаз (lossless)
Elton Dean - Three's Company Two's a Crowd
Glenn Spearman & Dominic Duval - Working With The Elements
Fred Anderson - Staying in the Game
Simon Nabatov, Han Bennink - Chat Room
The Fonda/Stevens Group - Forever Real
Dominic Duval Quintet - Cries and Whispers
George Lewis - Homage to Charles Parker
Marco Benevento - Invisible Baby
Matt Darriau Paradox Trio with Theodosii Spassov - Gambit
Enders Room - Random Guru (Johannes Enders)
Mike Stern - Between the Lines
Jon Eberson - Stash
Sun Ra and His Astro-Infinity Arkestra - Sound Sun Pleasure!!
Kenny Wheeler - Gnu High
Orquesta De Las Nubes - Me Paro Cuando Suena
Orquesta De Las Nubes - El Orden Del Azar
Jazzonia - Little Boy Don't Get Scared
VA - Warsaw Summer Jazz Days 2001 - Nastroj i zgraj zmysly
bILL fRISELL music for the films of bUSTER kEATON Go West
Fred Frith - Speechless
Jonas Hellborg - Adfa (featuring Trilok Gurtu)
Keith Jarrett - Belonging (w. Jan Garbarek)
Jan Garbarek-Bobo Stenson Quartet - Dansere
Jan Garbarek - Places
Shakti with John McLaughlin - Natural Elements (Japan release)
Shakti with John McLaughlin - A Handful of Beauty (Japan release)
Jaco Pastorius - Golden Roads
Mel Lewis and The Jazz Orchestra / Bob Brookmeyer - Live At The Village Vanguard
David Liebman and Richard Beirach - Chant
Louis Sclavis / Dominique Pifarely - Acoustic Quartet
Herbie Hancock - Future 2 Future (Japan bonus track)
Joachim Kühn with Daniel Humair and J. F. Jenny-Clark - Easy to Read
Joachim Kuhn, Mark Nauseef, Tony Newton, Miroslav Tadic - Let's Be Generous
George E. Lewis - Voyager
Christian Muthspiel, Gary Peacock, Wolfgang Muthspiel, Paul Motian
Oregon - Roots in the Sky
Oregon - Winter Light
Nana Vasconcelos, Steve Gorn, Badal Roy, Mike Richmond - Asian Journal
Charles Lloyd / Billy Higgins - Which Way Is East (2 CD)
Jamaaladeen Tacuma - Jukebox
Jamaaladeen Tacuma - Show Stopper
Jamaaladeen Tacuma - Renaissance Man
Edward Vesala Sound & Fury - Nordic Gallery
Original Silence - The Second Original Silence (Mats Gustafsson)
Eartha Kitt - Thinking Jazz
Steven Bernstein - Diaspora Hollywood
Moscow Composers Orchestra - Kings and Cabbages
John Zorn - Filmworks XXIII- el General
Avant-garde, Experimental Metal (lossless)
Praxis - Tennessee 2004
Azonic - Halo (Bill Laswell, Andy Hawkins)
Dub
VA - Axiom Dub: Mysteries of Creation (Bill Laswell)
Indie, Post-Rock & Post-Punk (lossless)
Jah Wobble - The Legend Lives On...Jah Wobbles in ''Betrayal"
Progressive & Art-Rock (lossless)
The Golden Palominos - A Dead Horse
Западноевропейский фолк (lossless)
Lena Willemark & Ale Möller - Nordan
Джаз и Блюз (DVD Video)
Dave Liebman - Sketches of Spain
Michel Portal - Jazz à Vienne
Джаз и Блюз (Видео)
Louis Sclavis Quintet "Lost On the Way" - Europa Jazz Festival
Арт-хаус и авторское кино (DVD, HD Video)
Коротко и со вкусом II - Ты и я / Kurz und gut II - Du und Ich
Коротко и со вкусом II - Близко и далеко / Kurz und gut II - Nach und fern
Коротко и со вкусом II - Стар и млад / Kurz und Gut II - Jung und Alt
Коротко и со вкусом II - Уйти или остаться / Kurz und gut II - Abhaun oder dableiben
Any questions -> support@pro-jazz.com. По всем вопросам пишите -> support@pro-jazz.com
16:44
183
Нет комментариев. Ваш будет первым!