Поиск

2020 Yussef Dayes - Welcome to the Hills {Cashmere Thoughts} [24-96]

2020 Yussef Dayes - Welcome to the Hills {Cashmere Thoughts} [24-96]
Дата записи диска:
9 июля 2019
Место записи:
Copenhagen, Denmark
Дата издания диска:
3 декабря 2020
Носитель:
WEB
Формат:
PCM
Тип рипа:
tracks+.cue
Контейнер:
APE (*.ape)
Количество каналов:
2.0
Разрядность/ЧД:
24/96
Битрейт аудио:
lossless
Время звучания:
01:17:14
Наличие сканов:
web
Страна-производитель диска (релиза):
Denmark
Релизёр (источник):
M0p94ok
Лог проверки качества
foobar2000 1.6.2 / Dynamic Range Meter 1.1.1
log date: 2020-12-27 02:08:57

--------------------------------------------------------------------------------
Analyzed: Yussef Dayes / Welcome to the Hills
--------------------------------------------------------------------------------

DR         Peak         RMS     Duration Track
--------------------------------------------------------------------------------
DR10      -0.40 dB   -12.52 dB      5:16 01-Black Love ~ Amazonian Springs
DR9       -0.40 dB   -12.16 dB      1:46 02-Jamaican Links
DR8       -0.40 dB   -11.11 dB      3:44 03-Odyssey
DR9       -0.40 dB   -12.36 dB     12:30 04-Gully Side
DR9       -0.40 dB   -12.91 dB      8:15 05-For My Ladies (Live in Copenhagen, July 9, 2019)
DR10      -0.40 dB   -13.10 dB      7:01 06-Palladino Sauce
DR10      -0.40 dB   -13.12 dB      7:18 07-Welcome to the Hills
DR10      -0.40 dB   -13.04 dB      7:22 08-Yesterday Princess
DR10      -0.40 dB   -12.75 dB      5:52 09-Encore ~ Babylon Burning
DR11      -0.40 dB   -13.83 dB      6:47 10-Purple Skies ~ Libations
DR10      -0.45 dB   -13.24 dB      5:06 11-Ride Out
DR9       -0.43 dB   -13.85 dB      6:24 12-Nipsey Tha Great
--------------------------------------------------------------------------------

Number of tracks:  12
Official DR value: DR10

Samplerate:        96000 Hz
Channels:          2
Bits per sample:   24
Bitrate:           1303 kbps
Codec:             FLAC
================================================================================
No seeders - write personal message to M0p94ok. Any questions - support@pro-jazz.com.
Нет сидеров - пишите в личку M0p94ok. Есть вопросы - support@pro-jazz.com
03:39
171
Нет комментариев. Ваш будет первым!