Вы используете незарегистрированную версию компонента "Вкладки"!

Поиск

2016 Iiro Rantala, Lars Danielsson, Peter Erskine - How Long Is Now? {ACT} [24-96]

2016 Iiro Rantala, Lars Danielsson, Peter Erskine - How Long Is Now? {ACT} [24-96]
Стили:
Издатель (лейбл):
Доп. инфо:

Формат записи/Источник записи: [TR24][OF]
Наличие водяных знаков: Нет
Год издания/переиздания диска: 2016
Продолжительность: 55:45
Наличие сканов в содержимом раздачи: Буклет PDF

Контейнер: FLAC (*.flac)
Тип рипа: tracks
Разрядность: 24/96
Формат: PCM
Количество каналов: 2.0

Источник: highresaudio.com

Лог проверки качества
foobar2000 1.3.9 / Dynamic Range Meter 1.1.1
log date: 2019-12-16 02:55:23

--------------------------------------------------------------------------------
Analyzed: Iiro Rantala / How Long Is Now?
--------------------------------------------------------------------------------

DR         Peak         RMS     Duration Track
--------------------------------------------------------------------------------
DR14      -0.80 dB   -19.31 dB      4:22 01-Voyage
DR14      -2.76 dB   -20.13 dB      4:03 02-How Long Is Now
DR12      -0.80 dB   -16.30 dB      4:14 03-Snapchat
DR14      -0.80 dB   -17.17 dB      4:54 04-Taksim By Night
DR12      -0.80 dB   -15.93 dB      4:56 05-Little Wing
DR13      -3.29 dB   -20.41 dB      4:50 06-Trust
DR13      -0.80 dB   -16.43 dB      5:38 07-Assisi
DR13      -2.68 dB   -20.32 dB      4:23 08-Kyrie
DR13      -0.80 dB   -18.28 dB      3:26 09-Each Breath
DR12      -0.80 dB   -15.42 dB      4:00 10-A Nut
DR13      -0.80 dB   -16.33 dB      6:13 11-Bruno
DR11      -0.80 dB   -14.75 dB      4:04 12-Topi
DR14      -4.66 dB   -22.19 dB      2:42 13-Choral
--------------------------------------------------------------------------------

Number of tracks:  13
Official DR value: DR13

Samplerate:        96000 Hz
Channels:          2
Bits per sample:   24
Bitrate:           2601 kbps
Codec:             FLAC
================================================================================
Any questions - support@pro-jazz.com. Есть вопросы - support@pro-jazz.com
22:55
210
Нет комментариев. Ваш будет первым!