Вы используете незарегистрированную версию компонента "Вкладки"!

Поиск

2016 Bill Laurance - Aftersun {GroundUp Music} [24-96]

2016 Bill Laurance - Aftersun {GroundUp Music} [24-96]
Стили:
Доп. инфо:

Формат записи/Источник записи: [TR24][OF]
Наличие водяных знаков: Нет
Год издания/переиздания диска: 2016
Издатель (лейбл): GroundUp Music LLC
Продолжительность: 53:03
Наличие сканов: Только обложка

Контейнер: FLAC (*.flac)
Тип рипа: tracks
Разрядность: 24/96
Формат: PCM
Количество каналов: 2.0

Источник: highresaudio.com

Лог проверки качества
foobar2000 1.3.9 / Dynamic Range Meter 1.1.1
log date: 2020-01-31 21:34:07

--------------------------------------------------------------------------------
Analyzed: Bill Laurance / Aftersun
--------------------------------------------------------------------------------

DR         Peak         RMS     Duration Track
--------------------------------------------------------------------------------
DR7       -0.20 dB    -8.59 dB      5:28 01-SOTI
DR7       -0.20 dB    -7.77 dB      6:26 02-The Pines
DR8       -0.20 dB    -9.37 dB      8:24 03-Time To Run
DR8       -0.20 dB    -9.67 dB      4:59 04-Madeleine
DR7       -0.20 dB    -8.44 dB      4:06 05-Bullet
DR6       -0.30 dB    -7.89 dB      6:03 06-Aftersun
DR8       -0.20 dB    -9.92 dB      4:58 07-First Light
DR7       -0.30 dB    -9.88 dB      4:42 08-Golden Hour
DR9       -0.30 dB   -10.23 dB      7:56 09-A Blaze
--------------------------------------------------------------------------------

Number of tracks:  9
Official DR value: DR7

Samplerate:        96000 Hz
Channels:          2
Bits per sample:   24
Bitrate:           2913 kbps
Codec:             FLAC
================================================================================
Any questions - support@pro-jazz.com. Есть вопросы - support@pro-jazz.com
14:11
314
Нет комментариев. Ваш будет первым!