Поиск

2015 Tim Garland - Return to the Fire {Edition} [24-88.2]

2015 Tim Garland - Return to the Fire {Edition} [24-88.2]
Дата издания диска:
2 октября 2015
Издатель (лейбл):
Носитель:
WEB
Формат:
PCM
Тип рипа:
tracks+.cue
Контейнер:
APE (*.ape)
Количество каналов:
2.0
Разрядность/ЧД:
24/88,2
Битрейт аудио:
lossless
Время звучания:
00:40:49
Наличие сканов:
web
Страна-производитель диска (релиза):
UK
Релизёр (источник):
M0p94ok
Доп. инфо:

«Я познакомился с Тимом Гарландом благодаря его оригинальному альбому «Enter The Fire» - и я захотел немного этого огня в моей группе - так началась наша долгая музыкальная дружба. Return To The Fire полностью показывает Тима, его прекрасные композиции и мастерство группы. Спасибо Тиму и его товарищам за то, что Music Fires горят ярко”. CHICK COREA

Специальное издание на виниле и только для скачивания, в котором представлены звезды британского джаза, в которых прославляется музыка и музыканты, вдохновившие Тима Гарланда на карьеру.

Лог проверки качества
foobar2000 1.3.16 / Dynamic Range Meter 1.1.1
log date: 2019-04-24 22:05:38

--------------------------------------------------------------------------------
Analyzed: Tim Garland / Return to the Fire
--------------------------------------------------------------------------------

DR         Peak         RMS     Duration Track
--------------------------------------------------------------------------------
DR10      -0.62 dB   -13.56 dB      9:10 01-Abiding Love
DR12      -0.62 dB   -16.27 dB      6:55 02-Lament
DR10      -0.62 dB   -12.71 dB      5:15 03-Return to the Fire
DR10      -0.70 dB   -13.43 dB      5:16 04-Valse Pour Ravel
DR11      -1.13 dB   -16.25 dB      9:52 05-Search for Peace
DR10      -0.62 dB   -12.49 dB      4:22 06-All Our Summers
--------------------------------------------------------------------------------

Number of tracks:  6
Official DR value: DR11

Samplerate:        88200 Hz
Channels:          2
Bits per sample:   24
Bitrate:           2597 kbps
Codec:             FLAC
================================================================================
No seeders - write personal message to M0p94ok. Any questions - support@pro-jazz.com.
Нет сидеров - пишите в личку M0p94ok. Есть вопросы - support@pro-jazz.com
20:48
157
Нет комментариев. Ваш будет первым!