Поиск

2007 Michael Brecker — Pilgrimage

2007 Michael Brecker — Pilgrimage
Дата записи диска:
август 2006
Дата издания диска:
20 мая 2007
Номер по каталогу:
HUCD 3095
Носитель:
CD
Битрейт аудио:
lossless
Аудиокодек:
FLAC (*.flac)
Тип рипа:
tracks+.cue
Время звучания:
01:17:41
Наличие сканов:
  • да
Релизёр (источник):
osloskop.net
Состав:
01. The Mean Time 6:55
02. Five Months From Midnight 7:40
03. Anagram 10:09
04. Tumbleweed 9:36
05. When Can I Kiss You Again? 9:42
06. Cardinal Rule 7:31
07. Half Moon Lane 7:17
08. Loose Threads 8:34
09. Pilgrimage 10:02
Лог создания рипа
EAC extraction logfile from 29. May 2007, 15:59 for CD
Michael Brecker / Pilgrimage
Used drive : ASUS DRW-1608P2S Adapter: 0 ID: 3
Read mode : Secure with NO C2, accurate stream, disable cache
Read offset correction : 48
Overread into Lead-In and Lead-Out : Yes
Used output format : C:\Program Files\Exact Audio Copy\Plugins\flac.exe (User Defined Encoder)
320 kBit/s
Additional command line options : -V -8 -T "artist=%a" -T "title=%t" -T "album=%g" -T "date=%y" -T "tracknumber=%n" -T "genre=%m" -T "comment=EAC 095pb5 / Flac 1.1.2 -8" %s
Other options :
Fill up missing offset samples with silence : Yes
Delete leading and trailing silent blocks : No
Native Win32 interface for Win NT & 2000
Track 1
Filename D:\Audio\lossless\Michael Brecker - Pilgrimage (2007) [FLAC]\01 - The mean time.wav
Pre-gap length 0:00:02.00
Peak level 99.8 %
Track quality 99.9 %
Test CRC AFC74B0D
Copy CRC AFC74B0D
Copy OK
Track 2
Filename D:\Audio\lossless\Michael Brecker - Pilgrimage (2007) [FLAC]\02 - Five months from midnight.wav
Pre-gap length 0:00:02.13
Peak level 98.0 %
Track quality 100.0 %
Test CRC 35BFE1B1
Copy CRC 35BFE1B1
Copy OK
Track 3
Filename D:\Audio\lossless\Michael Brecker - Pilgrimage (2007) [FLAC]\03 - Anagram.wav
Pre-gap length 0:00:00.50
Peak level 99.8 %
Track quality 100.0 %
Test CRC C17E54F9
Copy CRC C17E54F9
Copy OK
Track 4
Filename D:\Audio\lossless\Michael Brecker - Pilgrimage (2007) [FLAC]\04 - Tumbleweed.wav
Pre-gap length 0:00:02.17
Peak level 99.8 %
Track quality 100.0 %
Test CRC A2F53B60
Copy CRC A2F53B60
Copy OK
Track 5
Filename D:\Audio\lossless\Michael Brecker - Pilgrimage (2007) [FLAC]\05 - When can I kiss you again .wav
Pre-gap length 0:00:03.38
Peak level 99.8 %
Track quality 99.9 %
Test CRC FFF339C4
Copy CRC FFF339C4
Copy OK
Track 6
Filename D:\Audio\lossless\Michael Brecker - Pilgrimage (2007) [FLAC]\06 - Cardinal rule.wav
Pre-gap length 0:00:03.42
Peak level 99.8 %
Track quality 100.0 %
Test CRC 0B14AE44
Copy CRC 0B14AE44
Copy OK
Track 7
Filename D:\Audio\lossless\Michael Brecker - Pilgrimage (2007) [FLAC]\07 - Half moon lane.wav
Pre-gap length 0:00:02.74
Peak level 99.8 %
Track quality 100.0 %
Test CRC 98BCA8D1
Copy CRC 98BCA8D1
Copy OK
Track 8
Filename D:\Audio\lossless\Michael Brecker - Pilgrimage (2007) [FLAC]\08 - Loose threads.wav
Pre-gap length 0:00:01.54
Peak level 99.8 %
Track quality 100.0 %
Test CRC 27D0C226
Copy CRC 27D0C226
Copy OK
Track 9
Filename D:\Audio\lossless\Michael Brecker - Pilgrimage (2007) [FLAC]\09 - Pilgrimage.wav
Pre-gap length 0:00:02.22
Peak level 99.8 %
Track quality 99.9 %
Test CRC 6735842F
Copy CRC 6735842F
Copy OK
No errors occured
End of status report
Приватный:
Нет (DHT включён)
Размер:
521.64 Мб (546,982,785 байт) » файлов: 22
Участники:
0 раздают, 0 качают (0 участников всего)
Внешние участники:
3 раздают, 1 качают (4 участников всего) [ Обновить ]
13:09
132
RSS
Нет комментариев. Ваш будет первым!