Поиск

2000 Lee Ritenour & Dave Grusin - Two Worlds {Decca 467 132-2}

2000 Lee Ritenour & Dave Grusin - Two Worlds {Decca 467 132-2}
Страна-производитель диска (релиза):
GB
Дата записи диска:
декабрь 1999 - июнь 200
Дата издания диска:
12 сентября 2000
Издатель (лейбл):
Номер по каталогу:
467 132-2
Носитель:
CD
Битрейт аудио:
lossless
Аудиокодек:
APE (*.ape)
Тип рипа:
image+.cue
Время звучания:
53:57
Наличие сканов:
  • да
Релизёр (источник):
J23enya
Состав:
  • Alex Acuña    Drums, Percussion
  • Richard Altenbach    Violin
  • Carole Castillo    Viola
  • Luis Conte    Percussion
  • Stephen Erdody    Celli
  • Renée Fleming    Soprano
  • Julie Gigante    Violin
  • Keith Green    Viola
  • Dave Grusin    Arranger, Composer, Primary Artist, Producer, Transcription
  • Jennie Hansen    Viola
  • Scott Haupert    Viola
  • Paula Hochhalter    Celli
  • Carrie Holzman-Little    Viola
  • Roland Kato    Viola
  • Tom Kennedy    Bass
  • Michelle Kim    Violin
  • Renita Koven    Viola
  • Gary Kuo    Violin
  • Natalie Leggett    Violin
  • Mario de León    Violin
  • Julian Lloyd Webber    Cello
  • Liane Mautner    Violin
  • Edward Meares    Bass
  • Ralph Morrison III    Violin
  • Sara Parkins    Violin
  • Rachel Purkin    Violin
  • Susan Rishik    Violin
  • Lee Ritenour    Composer, Producer, Transcription
  • Marc Sazer    Violin
  • Elliot Scheiner    Engineer
  • Gil Shaham    Violin
  • Christina Soule    Celli
  • Lisa M. Sutton    Violin
  • Lesa Terry    Violin
  • Cecilia Tsan    Celli
  • James Walker    Featured Artist
  • Roger Wilkie    Violin
  • Margaret Wooten    Violin

Recording Location

  • Avatar Studio, New York, NY
  • Capital Records Studios, Hollywood, CA
  • Starlight Studio, Los Angeles, CA

01. Concerto In A Minor For Four Keyboards And Strings    [0:04:34.20]
02. Bachianas Brasileiras No. 5 - Aria    [0:05:05.50]
03. Sonatina - Andante II    [0:04:32.25]
04. Elegia (A Henri)    [0:03:22.17]
05. Suite Popular Espanola - No. 3 Cancion    [0:03:59.35]
06. Lagrima    [0:04:19.68]
07. River Songs - The Water Is Wide-Shenandoah    [0:07:01.52]
08. Romanian Folk Dances    [0:06:45.48]
09. Suite Compostelana III - Cuna    [0:04:26.07]
10. Suite Popular Espanola - No. 1 El Pano Moruno    [0:03:18.30]
11. Siciliana    [0:02:13.20]
12. Canto Invierno    [0:04:03.23]
13. Bachianas Brasileiras No. 4 - Preludio    [0:04:10.17]

Содержание индексной карты (.CUE)
PERFORMER "Dave Grusin & Lee Ritenour"
TITLE "Two Worlds"
FILE "Lee Ritenour & Dave Grusin - (2000) Two Worlds.wav" WAVE
  TRACK 01 AUDIO
    TITLE "Concerto In A Minor For Four Keyboards And Strings"
    PERFORMER "Dave Grusin & Lee Ritenour"
    INDEX 01 00:00:00
  TRACK 02 AUDIO
    TITLE "Bachianas Brasileiras No. 5 - Aria"
    PERFORMER "Dave Grusin & Lee Ritenour"
    INDEX 00 04:33:57
    INDEX 01 04:34:20
  TRACK 03 AUDIO
    TITLE "Sonatina - Andante II"
    PERFORMER "Dave Grusin & Lee Ritenour"
    INDEX 01 09:39:70
  TRACK 04 AUDIO
    TITLE "Elegia (A Henri)"
    PERFORMER "Dave Grusin & Lee Ritenour"
    INDEX 01 14:12:20
  TRACK 05 AUDIO
    TITLE "Suite Popular Espanola - No. 3 Cancion"
    PERFORMER "Dave Grusin & Lee Ritenour"
    INDEX 00 17:33:52
    INDEX 01 17:34:37
  TRACK 06 AUDIO
    TITLE "Lagrima"
    PERFORMER "Dave Grusin & Lee Ritenour"
    INDEX 00 21:33:12
    INDEX 01 21:33:72
  TRACK 07 AUDIO
    TITLE "River Songs - The Water Is Wide-Shenandoah"
    PERFORMER "Dave Grusin & Lee Ritenour"
    INDEX 01 25:53:65
  TRACK 08 AUDIO
    TITLE "Romanian Folk Dances"
    PERFORMER "Dave Grusin & Lee Ritenour"
    INDEX 00 32:54:37
    INDEX 01 32:55:42
  TRACK 09 AUDIO
    TITLE "Suite Compostelana III - Cuna"
    PERFORMER "Dave Grusin & Lee Ritenour"
    INDEX 01 39:41:15
  TRACK 10 AUDIO
    TITLE "Suite Popular Espanola - No. 1 El Pano Moruno"
    PERFORMER "Dave Grusin & Lee Ritenour"
    INDEX 01 44:07:22
  TRACK 11 AUDIO
    TITLE "Siciliana"
    PERFORMER "Dave Grusin & Lee Ritenour"
    INDEX 01 47:25:52
  TRACK 12 AUDIO
    TITLE "Canto Invierno"
    PERFORMER "Dave Grusin & Lee Ritenour"
    INDEX 01 49:38:72
  TRACK 13 AUDIO
    TITLE "Bachianas Brasileiras No. 4 - Preludio"
    PERFORMER "Dave Grusin & Lee Ritenour"
    INDEX 00 53:38:49
    INDEX 01 53:42:20
Лог проверки качества
[CUETools log; Date: 13.12.2017 21:54:35; Version: 2.1.5]
[CTDB TOCID: G1QR3bcHZe9OgabLGlcdCcmXZik-] found.
        [ CTDBID ] Status
        [29128205] (46/51) Accurately ripped
        [409cd5c9] (01/51) No match
        [5ac8ed8b] (01/51) No match
        [6863e2c3] (01/51) No match
        [93660cbc] (01/51) No match
        [ad1b8b3d] (01/51) No match
Track | CTDB Status
  1   | (49/51) Accurately ripped
  2   | (50/51) Accurately ripped
  3   | (50/51) Accurately ripped
  4   | (50/51) Accurately ripped
  5   | (50/51) Accurately ripped
  6   | (49/51) Accurately ripped
  7   | (49/51) Accurately ripped
  8   | (49/51) Accurately ripped
  9   | (50/51) Accurately ripped
 10   | (50/51) Accurately ripped
 11   | (50/51) Accurately ripped
 12   | (49/51) Accurately ripped
 13   | (47/51) Accurately ripped
[AccurateRip ID: 001cc2f7-011f1a14-cd0d900d] found.
Track   [  CRC   |   V2   ] Status
 01     [6dbd89ea|b4651915] (00+00/68) No match
 02     [322f8db5|331322e0] (00+00/69) No match
 03     [21eceae0|2a207805] (00+00/68) No match
 04     [39ee5c2d|0e283037] (00+00/68) No match
 05     [871f0d51|dacd59fe] (00+00/68) No match
 06     [3904518a|3bac92e1] (00+00/68) No match
 07     [09ac257e|49598f5d] (00+00/68) No match
 08     [d95454a4|28c6e406] (00+00/68) No match
 09     [43157555|06c5bd38] (00+00/67) No match
 10     [922e629b|45824ad5] (00+00/66) No match
 11     [e2cb841e|2b56dc22] (00+00/67) No match
 12     [1dceea03|42f06ff1] (00+00/66) No match
 13     [d093a072|3424f29d] (00+00/67) No match
Offsetted by -629:
 01     [3ce8898f] (02/68) Accurately ripped
 02     [0b911845] (02/69) Accurately ripped
 03     [2c33d324] (02/68) Accurately ripped
 04     [608ec96d] (02/68) Accurately ripped
 05     [05a31404] (02/68) Accurately ripped
 06     [aa826137] (02/68) Accurately ripped
 07     [e2128757] (02/68) Accurately ripped
 08     [649cdff2] (02/68) Accurately ripped
 09     [4d124eb0] (02/67) Accurately ripped
 10     [5f266e6a] (02/66) Accurately ripped
 11     [2a112a48] (02/67) Accurately ripped
 12     [ad84c82e] (02/66) Accurately ripped
 13     [c2f570c4] (02/67) Accurately ripped
Offsetted by 30:
 01     [377f40ac] (15/68) Accurately ripped
 02     [0a83a055] (15/69) Accurately ripped
 03     [0fff1ef4] (15/68) Accurately ripped
 04     [28efc75f] (15/68) Accurately ripped
 05     [59750e45] (15/68) Accurately ripped
 06     [8afb765d] (15/68) Accurately ripped
 07     [56fe74b3] (15/68) Accurately ripped
 08     [489f8ef1] (15/68) Accurately ripped
 09     [6e0c9a06] (15/67) Accurately ripped
 10     [5058f3f5] (15/66) Accurately ripped
 11     [11095fb6] (15/67) Accurately ripped
 12     [73bfba61] (14/66) Accurately ripped
 13     [565048c6] (15/67) Accurately ripped
Offsetted by 118:
 01     [dca669d4] (05/68) Accurately ripped
 02     [62f1b4d5] (06/69) Accurately ripped
 03     [fda1b3b8] (05/68) Accurately ripped
 04     [aa6e0cfa] (05/68) Accurately ripped
 05     [6c146076] (05/68) Accurately ripped
 06     [83d73c64] (05/68) Accurately ripped
 07     [3a9744fc] (05/68) Accurately ripped
 08     [8456d458] (05/68) Accurately ripped
 09     [6f5d8c74] (05/67) Accurately ripped
 10     [f77e8108] (05/66) Accurately ripped
 11     [768b9f96] (05/67) Accurately ripped
 12     [3ca43fb9] (05/66) Accurately ripped
 13     [11cf0356] (05/67) Accurately ripped
Offsetted by -637:
 01     [5c709d17] (00/68) No match (V2 was not tested)
 02     [49588ac5] (00/69) No match (V2 was not tested)
 03     [06f0beef] (00/68) No match (V2 was not tested)
 04     [20413f57] (00/68) No match (V2 was not tested)
 05     [792d616f] (00/68) No match (V2 was not tested)
 06     [2e7d14b1] (00/68) No match (V2 was not tested)
 07     [cc302781] (00/68) No match (V2 was not tested)
 08     [a2e636aa] (00/68) No match (V2 was not tested)
 09     [52292415] (00/67) No match (V2 was not tested)
 10     [0b30b2cd] (00/66) No match (V2 was not tested)
 11     [952bdeb0] (00/67) No match (V2 was not tested)
 12     [c9cd1926] (00/66) No match (V2 was not tested)
 13     [6c187714] (00/67) No match (V2 was not tested)
Offsetted by -119:
 01     [a2c5ac71] (00/68) No match (V2 was not tested)
 02     [692654e5] (00/69) No match (V2 was not tested)
 03     [dc4e62ce] (00/68) No match (V2 was not tested)
 04     [eb6dc7ea] (00/68) No match (V2 was not tested)
 05     [edea50a3] (00/68) No match (V2 was not tested)
 06     [655321f1] (00/68) No match (V2 was not tested)
 07     [d9e6e735] (00/68) No match (V2 was not tested)
 08     [8f093c00] (00/68) No match (V2 was not tested)
 09     [f54dee13] (00/67) No match (V2 was not tested)
 10     [63c1b047] (00/66) No match (V2 was not tested)
 11     [3c6fbf32] (00/67) No match (V2 was not tested)
 12     [62829e6c] (00/66) No match (V2 was not tested)
 13     [a47c9e58] (00/67) No match (V2 was not tested)

Track Peak [ CRC32  ] [W/O NULL] 
 --   99,8 [AFBE5D3D] [DF9D40F1]           
 01   99,8 [284D0D2F] [8812F2B8]           
 02   94,6 [B9CBABEB] [86E5F5C3]           
 03   81,6 [BF4611F4] [456EB184]           
 04   74,4 [9CC7BF19] [3348E2F7]           
 05   78,4 [FD5E666E] [A4BED6B3]           
 06   97,0 [17EAF8C9] [B4E3B59C]           
 07   99,8 [E47365B3] [0104ADE6]           
 08   99,8 [DC366273] [E7ADA617]           
 09   94,6 [EF9FB25F] [2CD0C189]           
 10   99,8 [2BE2CB4E] [8CB0FAF6]           
 11   74,8 [D55EB952] [1154AAC9]           
 12   78,2 [085E30E4] [9FA07804]           
 13   89,0 [AFB8B03E] [E4348A4C]
Приватный:
Нет (DHT включён)
Размер:
249.82 Мб (261,953,936 байт) » файлов: 8
Участники:
2 раздают, 0 качают (2 участников всего)
Внешние участники:
1 раздают, 0 качают (1 участников всего) [ Обновить ]
22:56
159
RSS
Нет комментариев. Ваш будет первым!