Поиск

1960 (1997) Bobby Timmons - This Here Is Bobby Timmons

1960 (1997) Bobby Timmons - This Here Is Bobby Timmons
Стили:
Страна-производитель диска (релиза):
Japan
Дата записи диска:
13-14 января 1960
Дата издания диска:
1960
Дата переиздания диска:
1997
Номер по каталогу:
VICJ-60101
Носитель:
CD
Битрейт аудио:
lossless
Аудиокодек:
FLAC (*.flac)
Тип рипа:
tracks+.cue
Время звучания:
38:23
Наличие сканов:
  • да
Релизёр (источник):
J23enya
Треклист:
 
01. This Here 3:31
02. Moanin' 5:05
03. Lush Life 2:28
04. The Party's Over 4:11
05. Prelude to a Kiss 3:20
06. Dat Dere 5:23
07. My Funny Valentine 5:06
08. Come Rain or Come Shine 4:30
09. Joy Ride 3:58
 
 
Состав:
  • Art Blakey Drums
  • Jimmy Cobb Drums
  • Mathew Handy Liner Notes
  • Sam Jones Bass
  • Orrin Keepnews Producer, Liner Notes
  • Blue Mitchell Trumpet
  • Bobby Timmons Composer, Piano
  • Jack Higgins recording engineer


Recorded at Reeves Sound Studios, NYC, January 13 and 14, 1960
Лог создания рипа
EAC extraction logfile from 31. January 2006, 1:02 for CD
Bobby Timmons / This Here is Bobby Timmons [XRCD]
Used drive : HL-DT-STDVDRAM GSA-4120B Adapter: 0 ID: 2
Read mode : Secure with NO C2, accurate stream, disable cache
Read offset correction : 667
Overread into Lead-In and Lead-Out : No
Used output format : C:\Arquivos de programas\Exact Audio Copy\flac.exe (User Defined Encoder)
160 kBit/s
Additional command line options : -5 -V -T "ARTIST=%a" -T "TITLE=%t" -T "ALBUM=%g" -T "DATE=%y" -T "TRACKNUMBER=%n" -T "GENRE=%m" -T "COMMENT=EAC Flac 1.1.2 -5" %s
Other options :
Fill up missing offset samples with silence : Yes
Delete leading and trailing silent blocks : No
Installed external ASPI interface
Track 1
Filename C:\Lossless\Ripping\Bobby Timmons - This Here Is Bobby Timmons (1960) [FLAC] (XRCD)\01 - This Here.wav
Peak level 100.0 %
Track quality 100.0 %
Test CRC A8098ECF
Copy CRC A8098ECF
Copy OK
Track 2
Filename C:\Lossless\Ripping\Bobby Timmons - This Here Is Bobby Timmons (1960) [FLAC] (XRCD)\02 - Moanin'.wav
Peak level 100.0 %
Track quality 100.0 %
Test CRC 4AF47F97
Copy CRC 4AF47F97
Copy OK
Track 3
Filename C:\Lossless\Ripping\Bobby Timmons - This Here Is Bobby Timmons (1960) [FLAC] (XRCD)\03 - Lush Life.wav
Peak level 99.8 %
Track quality 100.0 %
Test CRC CC764981
Copy CRC CC764981
Copy OK
Track 4
Filename C:\Lossless\Ripping\Bobby Timmons - This Here Is Bobby Timmons (1960) [FLAC] (XRCD)\04 - The Party's Over.wav
Peak level 100.0 %
Track quality 100.0 %
Test CRC 5AA7C030
Copy CRC 5AA7C030
Copy OK
Track 5
Filename C:\Lossless\Ripping\Bobby Timmons - This Here Is Bobby Timmons (1960) [FLAC] (XRCD)\05 - Prelude To A Kiss.wav
Peak level 98.7 %
Track quality 100.0 %
Test CRC 3EFD830D
Copy CRC 3EFD830D
Copy OK
Track 6
Filename C:\Lossless\Ripping\Bobby Timmons - This Here Is Bobby Timmons (1960) [FLAC] (XRCD)\06 - Dat Dere.wav
Peak level 81.0 %
Track quality 100.0 %
Test CRC B15FD5DE
Copy CRC B15FD5DE
Copy OK
Track 7
Filename C:\Lossless\Ripping\Bobby Timmons - This Here Is Bobby Timmons (1960) [FLAC] (XRCD)\07 - My Funny Valentine.wav
Peak level 72.7 %
Track quality 100.0 %
Test CRC A39C6CE8
Copy CRC A39C6CE8
Copy OK
Track 8
Filename C:\Lossless\Ripping\Bobby Timmons - This Here Is Bobby Timmons (1960) [FLAC] (XRCD)\08 - Come Rain Or Come Shine.wav
Peak level 100.0 %
Track quality 100.0 %
Test CRC 22E38731
Copy CRC 22E38731
Copy OK
Track 9
Filename C:\Lossless\Ripping\Bobby Timmons - This Here Is Bobby Timmons (1960) [FLAC] (XRCD)\09 - Joy Ride.wav
Peak level 100.0 %
Track quality 100.0 %
Test CRC 912FDF41
Copy CRC 912FDF41
Copy OK
No errors occured
End of status report
Содержание индексной карты (.CUE)
PERFORMER "Bobby Timmons"
TITLE "This Here is Bobby Timmons [XRCD]"
FILE "C:\Lossless\Ripping\Bobby Timmons - This Here Is Bobby Timmons (1960) [FLAC] (XRCD)\01 - This Here.wav" WAVE TRACK 01 AUDIO TITLE "This Here" PERFORMER "Bobby Timmons" INDEX 01 00:00:00 TRACK 02 AUDIO TITLE "Moanin'" PERFORMER "Bobby Timmons" INDEX 00 03:31:26
FILE "C:\Lossless\Ripping\Bobby Timmons - This Here Is Bobby Timmons (1960) [FLAC] (XRCD)\02 - Moanin'.wav" WAVE INDEX 01 00:00:00 TRACK 03 AUDIO TITLE "Lush Life" PERFORMER "Bobby Timmons" INDEX 00 05:05:49
FILE "C:\Lossless\Ripping\Bobby Timmons - This Here Is Bobby Timmons (1960) [FLAC] (XRCD)\03 - Lush Life.wav" WAVE INDEX 01 00:00:00 TRACK 04 AUDIO TITLE "The Party's Over" PERFORMER "Bobby Timmons" INDEX 00 02:28:11
FILE "C:\Lossless\Ripping\Bobby Timmons - This Here Is Bobby Timmons (1960) [FLAC] (XRCD)\04 - The Party's Over.wav" WAVE INDEX 01 00:00:00 TRACK 05 AUDIO TITLE "Prelude To A Kiss" PERFORMER "Bobby Timmons" INDEX 00 04:11:29
FILE "C:\Lossless\Ripping\Bobby Timmons - This Here Is Bobby Timmons (1960) [FLAC] (XRCD)\05 - Prelude To A Kiss.wav" WAVE INDEX 01 00:00:00 TRACK 06 AUDIO TITLE "Dat Dere" PERFORMER "Bobby Timmons" INDEX 00 03:20:74
FILE "C:\Lossless\Ripping\Bobby Timmons - This Here Is Bobby Timmons (1960) [FLAC] (XRCD)\06 - Dat Dere.wav" WAVE INDEX 01 00:00:00 TRACK 07 AUDIO TITLE "My Funny Valentine" PERFORMER "Bobby Timmons" INDEX 00 05:23:24
FILE "C:\Lossless\Ripping\Bobby Timmons - This Here Is Bobby Timmons (1960) [FLAC] (XRCD)\07 - My Funny Valentine.wav" WAVE INDEX 01 00:00:00 TRACK 08 AUDIO TITLE "Come Rain Or Come Shine" PERFORMER "Bobby Timmons" INDEX 00 05:06:01
FILE "C:\Lossless\Ripping\Bobby Timmons - This Here Is Bobby Timmons (1960) [FLAC] (XRCD)\08 - Come Rain Or Come Shine.wav" WAVE INDEX 01 00:00:00 TRACK 09 AUDIO TITLE "Joy Ride" PERFORMER "Bobby Timmons" INDEX 00 04:30:41
FILE "C:\Lossless\Ripping\Bobby Timmons - This Here Is Bobby Timmons (1960) [FLAC] (XRCD)\09 - Joy Ride.wav" WAVE INDEX 01 00:00:00
Приватный:
Нет (DHT включён)
Размер:
212.65 Мб (222,981,365 байт) » файлов: 19
Участники:
0 раздают, 0 качают (0 участников всего)
Внешние участники:
2 раздают, 1 качают (3 участников всего) [ Обновить ]
11:24
118
RSS
Нет комментариев. Ваш будет первым!